找回密码

蓝光电影网

查看: 5|回复: 0

[2160p] 小飞象/小飞象真人版 Dumbo.2019.2160p.BluRay.x264.8bit.SDR.DTS-HD.MA.TrueHD.7.1.Atmos-SWTYBLZ 50.23GB

[复制链接]
蓝光币
426
发表于 2019-6-26 19:31:26 | 显示全部楼层 |阅读模式


◎译  名 小飞象 / 小飞象真人版
◎片  名 Dumbo
◎年  代 2019
◎产  地 美国
◎类  别 奇异 / 冒险
◎语  言 英语
◎上映日期 2019-03-29(美国/中国大陆)
◎IMDb评分  6.5/10 from 26607 users
◎IMDb链接  http://www.imdb.com/title/tt3861390
◎豆瓣评分 6.8/10 from 27773 users
◎豆瓣链接 https://movie.douban.com/subject/25924056/
◎片  长 112分钟
◎导  演 蒂姆·波顿 Tim Burton
◎编  剧 伊伦·克鲁格 Ehren Kruger
◎主  演 伊娃·格林 Eva Green
      科林·法瑞尔 Colin Farrell
      迈克尔·基顿 Michael Keaton
      妮可·帕克 Nico Parker
      芬利·霍宾斯 Finley Hobbins
      丹尼·德维托 Danny DeVito
      艾伦·阿金 Alan Arkin
      卡米尔·雷米泽斯基 Kamil Lemieszewski
      约瑟夫·盖特 Joseph Gatt
      桑迪·马丁 Sandy Martin
      乔·奥斯蒙德 Jo Osmond
      莎朗·鲁妮 Sharon Rooney
      拉斯·艾丁格 Lars Eidinger
      罗珊·塞斯 Roshan Seth
      道比·欧帕瑞 Deobia Oparei
      迈克尔·巴佛 Michael Buffer
      Jessie Vinning
      伯纳多·桑托斯 Bernardo Santos
      Bern Colla?o
      文森特·阿德里安 Vincent Andriano
      菲利普·罗施 Philip Rosch
      露西·德维托 Lucy DeVito
      Lampros Kalfuntzos
      Amerjit Deu
      Stephen Samson
      埃里克·海登 Erick Hayden

◎标  签 迪士尼 | 温情 | 童话 | 奇异 | 美国 | 真人版 | 动画 | 2019
◎简  介  
  迪士尼全新真人版《小飞象》改编自1941年推出的迪士尼同名典范动画,报告了生来因一双大耳朵而遭人嘲笑的小飞象,在众人的帮助下逐步拥抱自己的与众分歧,成就一段逆风翱翔的暖心传奇。
一位前马戏团明星,刚从战争火线归来,霍特·法瑞尔(科林·法瑞尔饰)在一家艰难经营的马戏团谋得一份工作,负责照顾刚诞生的小象,带着两个善良的孩子,女儿米莉·法瑞尔(尼科·帕克饰)和儿子乔·法瑞尔(芬利·霍宾斯饰),两个孩子和别的一个女孩玛茜特(蔡慧泉饰)与小飞象成为朋友, 帮助小飞象找到妈妈。
当人们发现小象会飞后,马戏团反复活机,更吸引到一个布满心机的买卖人文德维尔(迈克尔·基顿饰)的留意,他把小飞象雇佣到他的大型游乐场Dreamland,与杂技演员柯莱特·马钱特(伊娃·格林饰)做同伴,人气到达新高度,但是霍特·法瑞尔发现,游乐场鲜明亮丽的背后,布满各种见不得人的奥秘。

  1. Video
  2. ID                                       : 1
  3. Format                                   : AVC
  4. Format/Info                              : Advanced Video Codec
  5. Format profile                           : [email protected]
  6. Format settings                          : CABAC / 5 Ref Frames
  7. Format settings, CABAC                   : Yes
  8. Format settings, RefFrames               : 5 frames
  9. Codec ID                                 : V_MPEG4/ISO/AVC
  10. Duration                                 : 1 h 51 min
  11. Bit rate                                 : 54.1 Mb/s
  12. Width                                    : 3 840 pixels
  13. Height                                   : 2 076 pixels
  14. Display aspect ratio                     : 1.85:1
  15. Frame rate mode                          : Constant
  16. Frame rate                               : 23.976 (24000/1001) FPS
  17. Color space                              : YUV
  18. Chroma subsampling                       : 4:2:0
  19. Bit depth                                : 8 bits
  20. Scan type                                : Progressive
  21. Bits/(Pixel*Frame)                       : 0.283
  22. Stream size                              : 42.3 GiB (85%)
  23. Title                                    : Dumbo.2019.2160p.BluRay.x264.8bit.SDR.DTS-HD.MA.TrueHD.7.1.Atmos-SWTYBLZ
  24. Writing library                          : x264 core 157 r2935 545de2f
  25. Encoding settings                        : cabac=1 / ref=5 / deblock=1:-1:-1 / analyse=0x3:0x113 / me=umh / subme=10 / psy=1 / psy_rd=1.00:0.15 / mixed_ref=1 / me_range=48 / chroma_me=1 / trellis=2 / 8x8dct=1 / cqm=0 / deadzone=21,11 / fast_pskip=1 / chroma_qp_offset=-3 / threads=48 / lookahead_threads=4 / sliced_threads=0 / nr=0 / decimate=0 / interlaced=0 / bluray_compat=0 / constrained_intra=0 / bframes=3 / b_pyramid=2 / b_adapt=2 / b_bias=0 / direct=3 / weightb=1 / open_gop=0 / weightp=2 / keyint=250 / keyint_min=23 / scenecut=40 / intra_refresh=0 / rc_lookahead=50 / rc=crf / mbtree=1 / crf=18.0 / qcomp=0.60 / qpmin=0 / qpmax=69 / qpstep=4 / ip_ratio=1.40 / aq=1:1.00
  26. Default                                  : Yes
  27. Forced                                   : No
  28. Audio #1
  29. ID                                       : 2
  30. Format                                   : MLP FBA 16-ch
  31. Format/Info                              : Meridian Lossless Packing FBA with 16-channel presentation
  32. Commercial name                          : Dolby TrueHD with Dolby Atmos
  33. Codec ID                                 : A_TRUEHD
  34. Duration                                 : 1 h 51 min
  35. Bit rate mode                            : Variable
  36. Bit rate                                 : 4 916 kb/s
  37. Maximum bit rate                         : 7 476 kb/s
  38. Channel(s)                               : 8 channels
  39. Channel layout                           : L R C LFE Ls Rs Lb Rb
  40. Sampling rate                            : 48.0 kHz
  41. Frame rate                               : 1 200.000 FPS (40 SPF)
  42. Compression mode                         : Lossless
  43. Stream size                              : 3.84 GiB (8%)
  44. Title                                    : Dumbo.2019.2160p.BluRay.x264.8bit.SDR.DTS-HD.MA.TrueHD.7.1.Atmos-SWTYBLZ
  45. Language                                 : English
  46. Default                                  : Yes
  47. Forced                                   : No
  48. Number of dynamic objects                : 13
  49. Bed channel count                        : 1 channel
  50. Bed channel configuration                : LFE
  51. Audio #2
  52. ID                                       : 3
  53. Format                                   : DTS XLL
  54. Format/Info                              : Digital Theater Systems
  55. Commercial name                          : DTS-HD Master Audio
  56. Codec ID                                 : A_DTS
  57. Duration                                 : 1 h 51 min
  58. Bit rate mode                            : Variable
  59. Bit rate                                 : 4 153 kb/s
  60. Channel(s)                               : 8 channels
  61. Channel layout                           : C L R LFE Lb Rb Lss Rss
  62. Sampling rate                            : 48.0 kHz
  63. Frame rate                               : 93.750 FPS (512 SPF)
  64. Bit depth                                : 24 bits
  65. Compression mode                         : Lossless
  66. Stream size                              : 3.25 GiB (6%)
  67. Title                                    : Dumbo.2019.2160p.BluRay.x264.8bit.SDR.DTS-HD.MA.TrueHD.7.1.Atmos-SWTYBLZ
  68. Language                                 : English
  69. Default                                  : No
  70. Forced                                   : No
  71. Audio #3
  72. ID                                       : 4
  73. Format                                   : AC-3
  74. Format/Info                              : Audio Coding 3
  75. Commercial name                          : Dolby Digital
  76. Codec ID                                 : A_AC3
  77. Duration                                 : 1 h 51 min
  78. Bit rate mode                            : Constant
  79. Bit rate                                 : 640 kb/s
  80. Channel(s)                               : 6 channels
  81. Channel layout                           : L R C LFE Ls Rs
  82. Sampling rate                            : 48.0 kHz
  83. Frame rate                               : 31.250 FPS (1536 SPF)
  84. Bit depth                                : 16 bits
  85. Compression mode                         : Lossy
  86. Stream size                              : 512 MiB (1%)
  87. Title                                    : Dumbo.2019.2160p.BluRay.x264.8bit.SDR.DTS-HD.MA.TrueHD.7.1.Atmos-SWTYBLZ
  88. Language                                 : English
  89. Service kind                             : Complete Main
  90. Default                                  : No
  91. Forced                                   : No
  92. Text #1
  93. ID                                       : 5
  94. Format                                   : UTF-8
  95. Codec ID                                 : S_TEXT/UTF8
  96. Codec ID/Info                            : UTF-8 Plain Text
  97. Duration                                 : 1 h 41 min
  98. Bit rate                                 : 41 b/s
  99. Count of elements                        : 1210
  100. Stream size                              : 31.1 KiB (0%)
  101. Title                                    : English-SRT
  102. Language                                 : English
  103. Default                                  : Yes
  104. Forced                                   : No
  105. Text #2
  106. ID                                       : 6
  107. Format                                   : UTF-8
  108. Codec ID                                 : S_TEXT/UTF8
  109. Codec ID/Info                            : UTF-8 Plain Text
  110. Duration                                 : 1 h 43 min
  111. Bit rate                                 : 51 b/s
  112. Count of elements                        : 1565
  113. Stream size                              : 39.3 KiB (0%)
  114. Title                                    : English-SDH-SRT
  115. Language                                 : English
  116. Default                                  : No
  117. Forced                                   : No
  118. Text #3
  119. ID                                       : 7
  120. Format                                   : PGS
  121. Muxing mode                              : zlib
  122. Codec ID                                 : S_HDMV/PGS
  123. Codec ID/Info                            : Picture based subtitle format used on BDs/HD-DVDs
  124. Duration                                 : 1 h 43 min
  125. Bit rate                                 : 35.5 kb/s
  126. Count of elements                        : 3130
  127. Stream size                              : 26.3 MiB (0%)
  128. Title                                    : English-PGS
  129. Language                                 : English
  130. Default                                  : No
  131. Forced                                   : No
  132. Text #4
  133. ID                                       : 8
  134. Format                                   : PGS
  135. Muxing mode                              : zlib
  136. Codec ID                                 : S_HDMV/PGS
  137. Codec ID/Info                            : Picture based subtitle format used on BDs/HD-DVDs
  138. Duration                                 : 1 h 51 min
  139. Bit rate                                 : 26.3 kb/s
  140. Count of elements                        : 2350
  141. Stream size                              : 20.9 MiB (0%)
  142. Title                                    : French-PGS
  143. Language                                 : French
  144. Default                                  : No
  145. Forced                                   : No
  146. Text #5
  147. ID                                       : 9
  148. Format                                   : PGS
  149. Muxing mode                              : zlib
  150. Codec ID                                 : S_HDMV/PGS
  151. Codec ID/Info                            : Picture based subtitle format used on BDs/HD-DVDs
  152. Duration                                 : 1 h 51 min
  153. Bit rate                                 : 18.8 kb/s
  154. Count of elements                        : 2113
  155. Stream size                              : 15.0 MiB (0%)
  156. Title                                    : Japanese-PGS
  157. Language                                 : Japanese
  158. Default                                  : No
  159. Forced                                   : No
  160. Text #6
  161. ID                                       : 10
  162. Format                                   : PGS
  163. Muxing mode                              : zlib
  164. Codec ID                                 : S_HDMV/PGS
  165. Codec ID/Info                            : Picture based subtitle format used on BDs/HD-DVDs
  166. Duration                                 : 1 h 41 min
  167. Bit rate                                 : 27.7 kb/s
  168. Count of elements                        : 2320
  169. Stream size                              : 20.1 MiB (0%)
  170. Title                                    : Spanish-PGS
  171. Language                                 : Spanish
  172. Default                                  : No
  173. Forced                                   : No
  174. Menu
  175. 00:00:00.000                             : en:Chapter 01
  176. 00:02:49.460                             : en:Chapter 02
  177. 00:06:46.072                             : en:Chapter 03
  178. 00:11:23.766                             : en:Chapter 04
  179. 00:16:33.909                             : en:Chapter 05
  180. 00:19:20.492                             : en:Chapter 06
  181. 00:26:08.233                             : en:Chapter 07
  182. 00:27:45.997                             : en:Chapter 08
  183. 00:31:07.699                             : en:Chapter 09
  184. 00:35:09.023                             : en:Chapter 10
  185. 00:40:44.775                             : en:Chapter 11
  186. 00:46:44.927                             : en:Chapter 12
  187. 00:50:23.895                             : en:Chapter 13
  188. 00:57:15.014                             : en:Chapter 14
  189. 01:01:53.000                             : en:Chapter 15
  190. 01:07:18.784                             : en:Chapter 16
  191. 01:10:11.665                             : en:Chapter 17
  192. 01:14:47.858                             : en:Chapter 18
  193. 01:18:04.721                             : en:Chapter 19
  194. 01:27:55.895                             : en:Chapter 20
  195. 01:37:09.532                             : en:Chapter 21
  196. 01:39:40.975                             : en:Chapter 22
  197. 01:44:02.444                             : en:Chapter 23
复制代码









                                       
                                       

                                       
                                       
                                       




回复

使用道具 举报

懒得打字嘛,点击右侧快捷回复 【右侧内容,后台自定义】
您需要登录后才可以回帖 登录 | 立即加入

本版积分规则

Archiver|小黑屋| 蓝光电影网 |网站地图

Copyright © 2021 Comsenz Inc. Powered by 蓝光电影网

蓝光电影网

本站内容由用户自主分享和转载自互联网,转载目的在于传递更多信息,并不代表本网赞同其观点和对其真实性负责。

如有侵权、违反国家法律政策行为,请联系我们,我们会第一时间及时清除和处理!

举报反馈邮箱:[email protected]

快速回复 返回顶部 返回列表