找回密码

蓝光电影网

查看: 4|回复: 0

[2160p] 速度与激情4 Fast.and.Furious.2009.2160p.BluRay.x264.8bit.SDR.DTS-X.7.1-SWTYBLZ 41.28GB

[复制链接]
蓝光币
382
发表于 2019-6-26 19:27:32 | 显示全部楼层 |阅读模式


◎译  名 速度与豪情4 / Fast and Furious 4 / 狂野时速4 / 玩命关头4 / 赛车风云
◎片  名 Fast & Furious
◎年  代 2009
◎产  地 美国
◎类  别 行动 / 犯罪
◎语  言 英语
◎上映日期 2009-04-03(美国) / 2009-04-15(中国大陆)
◎IMDb评分  6.6/10 from 242737 users
◎IMDb链接  http://www.imdb.com/title/tt1013752
◎豆瓣评分 7.7/10 from 107749 users
◎豆瓣链接 https://movie.douban.com/subject/2132930/
◎片  长 107 分钟
◎导  演 林诣彬 Justin Lin
◎编  剧 克里斯·摩根 Chris Morgan / 盖瑞·斯科特·汤普森 Gary Scott Thompson
◎主  演 范·迪塞尔 Vin Diesel
      保罗·沃克 Paul Walker
      米歇尔·罗德里格兹 Michelle Rodriguez
      乔丹娜·布鲁斯特 Jordana Brewster
      盖尔·加朵 Gal Gadot
      约翰·奥提兹 John Ortiz
      拉兹·阿隆索 Laz Alonso
      谢伊·惠格姆 Shea Whigham
      莉萨·拉皮拉 Liza Lapira
      姜成镐 Sung Kang
      格雷格·西佩斯 Greg Cipes

◎标  签 行动 | 美国 | 赛车 | 速度与豪情 | 犯罪 | 2009 | 飙车 | VinDiesel
◎简  介  
  在《速度与豪情1》中,为了回避差人的追捕,多米尼克(范·迪塞尔 Vin Diesel 饰)分开洛杉矶一向亡命于多米尼加共和国。而一车代价140万美金的石油装载车让蛰伏多年的多米尼克再次驾车驰骋起来。而这时,却传来朱颜知己莉迪(米歇尔·罗德里格兹 Michelle Rodriguez 饰)惨死的消息。为了查明真相,义愤填膺的多米尼克再次孤身赶回美国。本来,莉迪是为了获得赦宥多米尼克的机遇,而辅佐警局抓捕大毒枭坎波斯(约翰·奥提兹 John Ortiz 饰)。不外出于习惯,坎波斯将输送毒品后的莉迪杀人灭口。这样,一边是为女友报仇的多米尼克,一边是历练多年的警探布莱恩(保罗·沃克 Paul Walker 饰),两人再次携手,方针直指大毒枭巴尔加。一场缓慢复仇就此展开……
《速度与豪情4》相沿了第三部东京漂移的华裔导演林诣彬,剧情上跳过第三部,间接承袭第二部,可以说是彻完全底的正统续作。
◎获奖情况  
  第18届MTV电影奖(2009)
  MTV电影奖 最好男演员(提名) 范·迪塞尔
  第11届美国青少年挑选奖(2009)
  最好行动冒险电影(提名)
  最好行动冒险电影男演员(提名) 保罗·沃克
  最好行动冒险电影女演员 乔丹娜·布鲁斯特

  1. Video
  2. ID                                       : 1
  3. Format                                   : AVC
  4. Format/Info                              : Advanced Video Codec
  5. Format profile                           : [email protected]
  6. Format settings                          : CABAC / 5 Ref Frames
  7. Format settings, CABAC                   : Yes
  8. Format settings, RefFrames               : 5 frames
  9. Codec ID                                 : V_MPEG4/ISO/AVC
  10. Duration                                 : 1 h 46 min
  11. Bit rate                                 : 50.4 Mb/s
  12. Width                                    : 3 840 pixels
  13. Height                                   : 1 600 pixels
  14. Display aspect ratio                     : 2.40:1
  15. Frame rate mode                          : Constant
  16. Frame rate                               : 23.976 (24000/1001) FPS
  17. Color space                              : YUV
  18. Chroma subsampling                       : 4:2:0
  19. Bit depth                                : 8 bits
  20. Scan type                                : Progressive
  21. Bits/(Pixel*Frame)                       : 0.342
  22. Stream size                              : 37.6 GiB (91%)
  23. Title                                    : Fast.and.Furious.2009.2160p.BluRay.x264.8bit.SDR.DTS-X.7.1-SWTYBLZ
  24. Writing library                          : x264 core 157 r2935 545de2f
  25. Encoding settings                        : cabac=1 / ref=5 / deblock=1:-1:-1 / analyse=0x3:0x113 / me=umh / subme=10 / psy=1 / psy_rd=1.00:0.15 / mixed_ref=1 / me_range=48 / chroma_me=1 / trellis=2 / 8x8dct=1 / cqm=0 / deadzone=21,11 / fast_pskip=1 / chroma_qp_offset=-3 / threads=48 / lookahead_threads=4 / sliced_threads=0 / nr=0 / decimate=0 / interlaced=0 / bluray_compat=0 / constrained_intra=0 / bframes=3 / b_pyramid=2 / b_adapt=2 / b_bias=0 / direct=3 / weightb=1 / open_gop=0 / weightp=2 / keyint=250 / keyint_min=23 / scenecut=40 / intra_refresh=0 / rc_lookahead=50 / rc=crf / mbtree=1 / crf=18.0 / qcomp=0.60 / qpmin=0 / qpmax=69 / qpstep=4 / ip_ratio=1.40 / aq=1:1.00
  26. Default                                  : Yes
  27. Forced                                   : No
  28. Audio #1
  29. ID                                       : 2
  30. Format                                   : DTS XLL X
  31. Format/Info                              : Digital Theater Systems
  32. Commercial name                          : DTS-HD Master Audio
  33. Codec ID                                 : A_DTS
  34. Duration                                 : 1 h 46 min
  35. Bit rate mode                            : Variable
  36. Bit rate                                 : 4 106 kb/s
  37. Channel(s)                               : 8 channels
  38. Channel(s)_Original                      : Object Based
  39. Channel layout                           : Object Based
  40. Sampling rate                            : 48.0 kHz
  41. Frame rate                               : 93.750 FPS (512 SPF)
  42. Bit depth                                : 24 bits
  43. Stream size                              : 3.06 GiB (7%)
  44. Title                                    : Fast.and.Furious.2009.2160p.BluRay.x264.8bit.SDR.DTS-X.7.1-SWTYBLZ
  45. Language                                 : English
  46. Default                                  : Yes
  47. Forced                                   : No
  48. Audio #2
  49. ID                                       : 3
  50. Format                                   : AC-3
  51. Format/Info                              : Audio Coding 3
  52. Commercial name                          : Dolby Digital
  53. Codec ID                                 : A_AC3
  54. Duration                                 : 1 h 46 min
  55. Bit rate mode                            : Constant
  56. Bit rate                                 : 640 kb/s
  57. Channel(s)                               : 6 channels
  58. Channel layout                           : L R C LFE Ls Rs
  59. Sampling rate                            : 48.0 kHz
  60. Frame rate                               : 31.250 FPS (1536 SPF)
  61. Bit depth                                : 16 bits
  62. Compression mode                         : Lossy
  63. Stream size                              : 489 MiB (1%)
  64. Title                                    : Fast.and.Furious.2009.2160p.BluRay.x264.8bit.SDR.DTS-X.7.1-SWTYBLZ
  65. Language                                 : English
  66. Service kind                             : Complete Main
  67. Default                                  : No
  68. Forced                                   : No
  69. Text #1
  70. ID                                       : 4
  71. Format                                   : UTF-8
  72. Codec ID                                 : S_TEXT/UTF8
  73. Codec ID/Info                            : UTF-8 Plain Text
  74. Duration                                 : 1 h 37 min
  75. Bit rate                                 : 35 b/s
  76. Count of elements                        : 753
  77. Stream size                              : 25.1 KiB (0%)
  78. Title                                    : English-SRT
  79. Language                                 : English
  80. Default                                  : Yes
  81. Forced                                   : No
  82. Text #2
  83. ID                                       : 5
  84. Format                                   : UTF-8
  85. Codec ID                                 : S_TEXT/UTF8
  86. Codec ID/Info                            : UTF-8 Plain Text
  87. Duration                                 : 1 h 38 min
  88. Bit rate                                 : 39 b/s
  89. Count of elements                        : 933
  90. Stream size                              : 28.1 KiB (0%)
  91. Title                                    : English-SDH-SRT
  92. Language                                 : English
  93. Default                                  : No
  94. Forced                                   : No
  95. Text #3
  96. ID                                       : 6
  97. Format                                   : PGS
  98. Muxing mode                              : zlib
  99. Codec ID                                 : S_HDMV/PGS
  100. Codec ID/Info                            : Picture based subtitle format used on BDs/HD-DVDs
  101. Duration                                 : 1 h 38 min
  102. Bit rate                                 : 26.8 kb/s
  103. Count of elements                        : 1974
  104. Stream size                              : 18.8 MiB (0%)
  105. Title                                    : English-PGS
  106. Language                                 : English
  107. Default                                  : No
  108. Forced                                   : No
  109. Text #4
  110. ID                                       : 7
  111. Format                                   : PGS
  112. Muxing mode                              : zlib
  113. Codec ID                                 : S_HDMV/PGS
  114. Codec ID/Info                            : Picture based subtitle format used on BDs/HD-DVDs
  115. Duration                                 : 1 h 46 min
  116. Bit rate                                 : 17.1 kb/s
  117. Count of elements                        : 1502
  118. Stream size                              : 13.0 MiB (0%)
  119. Title                                    : French-PGS
  120. Language                                 : French
  121. Default                                  : No
  122. Forced                                   : No
  123. Text #5
  124. ID                                       : 8
  125. Format                                   : PGS
  126. Muxing mode                              : zlib
  127. Codec ID                                 : S_HDMV/PGS
  128. Codec ID/Info                            : Picture based subtitle format used on BDs/HD-DVDs
  129. Duration                                 : 1 h 46 min
  130. Bit rate                                 : 14.8 kb/s
  131. Count of elements                        : 1386
  132. Stream size                              : 11.2 MiB (0%)
  133. Title                                    : Dutch-PGS
  134. Language                                 : Dutch
  135. Default                                  : No
  136. Forced                                   : No
  137. Text #6
  138. ID                                       : 9
  139. Format                                   : PGS
  140. Muxing mode                              : zlib
  141. Codec ID                                 : S_HDMV/PGS
  142. Codec ID/Info                            : Picture based subtitle format used on BDs/HD-DVDs
  143. Duration                                 : 1 h 46 min
  144. Bit rate                                 : 18.6 kb/s
  145. Count of elements                        : 1552
  146. Stream size                              : 14.1 MiB (0%)
  147. Title                                    : Danish-PGS
  148. Language                                 : Danish
  149. Default                                  : No
  150. Forced                                   : No
  151. Text #7
  152. ID                                       : 10
  153. Format                                   : PGS
  154. Muxing mode                              : zlib
  155. Codec ID                                 : S_HDMV/PGS
  156. Codec ID/Info                            : Picture based subtitle format used on BDs/HD-DVDs
  157. Duration                                 : 1 h 46 min
  158. Bit rate                                 : 16.0 kb/s
  159. Count of elements                        : 1408
  160. Stream size                              : 12.1 MiB (0%)
  161. Title                                    : Finnish-PGS
  162. Language                                 : Finnish
  163. Default                                  : No
  164. Forced                                   : No
  165. Text #8
  166. ID                                       : 11
  167. Format                                   : PGS
  168. Muxing mode                              : zlib
  169. Codec ID                                 : S_HDMV/PGS
  170. Codec ID/Info                            : Picture based subtitle format used on BDs/HD-DVDs
  171. Duration                                 : 1 h 46 min
  172. Bit rate                                 : 15.6 kb/s
  173. Count of elements                        : 1546
  174. Stream size                              : 11.9 MiB (0%)
  175. Title                                    : Norwegian-PGS
  176. Language                                 : Norwegian
  177. Default                                  : No
  178. Forced                                   : No
  179. Text #9
  180. ID                                       : 12
  181. Format                                   : PGS
  182. Muxing mode                              : zlib
  183. Codec ID                                 : S_HDMV/PGS
  184. Codec ID/Info                            : Picture based subtitle format used on BDs/HD-DVDs
  185. Duration                                 : 1 h 46 min
  186. Bit rate                                 : 20.6 kb/s
  187. Count of elements                        : 1618
  188. Stream size                              : 15.6 MiB (0%)
  189. Title                                    : Swedish-PGS
  190. Language                                 : Swedish
  191. Default                                  : No
  192. Forced                                   : No
  193. Text #10
  194. ID                                       : 13
  195. Format                                   : PGS
  196. Muxing mode                              : zlib
  197. Codec ID                                 : S_HDMV/PGS
  198. Codec ID/Info                            : Picture based subtitle format used on BDs/HD-DVDs
  199. Duration                                 : 1 h 46 min
  200. Bit rate                                 : 18.0 kb/s
  201. Count of elements                        : 1598
  202. Stream size                              : 13.7 MiB (0%)
  203. Title                                    : Czech-PGS
  204. Language                                 : Czech
  205. Default                                  : No
  206. Forced                                   : No
  207. Text #11
  208. ID                                       : 14
  209. Format                                   : PGS
  210. Muxing mode                              : zlib
  211. Codec ID                                 : S_HDMV/PGS
  212. Codec ID/Info                            : Picture based subtitle format used on BDs/HD-DVDs
  213. Duration                                 : 1 h 46 min
  214. Bit rate                                 : 16.7 kb/s
  215. Count of elements                        : 1558
  216. Stream size                              : 12.7 MiB (0%)
  217. Title                                    : Hungarian-PGS
  218. Language                                 : Hungarian
  219. Default                                  : No
  220. Forced                                   : No
  221. Text #12
  222. ID                                       : 15
  223. Format                                   : PGS
  224. Muxing mode                              : zlib
  225. Codec ID                                 : S_HDMV/PGS
  226. Codec ID/Info                            : Picture based subtitle format used on BDs/HD-DVDs
  227. Duration                                 : 1 h 46 min
  228. Bit rate                                 : 18.7 kb/s
  229. Count of elements                        : 1572
  230. Stream size                              : 14.2 MiB (0%)
  231. Title                                    : Polish-PGS
  232. Language                                 : Polish
  233. Default                                  : No
  234. Forced                                   : No
  235. Text #13
  236. ID                                       : 16
  237. Format                                   : PGS
  238. Muxing mode                              : zlib
  239. Codec ID                                 : S_HDMV/PGS
  240. Codec ID/Info                            : Picture based subtitle format used on BDs/HD-DVDs
  241. Duration                                 : 1 h 46 min
  242. Bit rate                                 : 16.5 kb/s
  243. Count of elements                        : 1622
  244. Stream size                              : 12.5 MiB (0%)
  245. Title                                    : Chinese-PGS
  246. Language                                 : Chinese
  247. Default                                  : No
  248. Forced                                   : No
  249. Text #14
  250. ID                                       : 17
  251. Format                                   : PGS
  252. Muxing mode                              : zlib
  253. Codec ID                                 : S_HDMV/PGS
  254. Codec ID/Info                            : Picture based subtitle format used on BDs/HD-DVDs
  255. Duration                                 : 1 h 46 min
  256. Bit rate                                 : 11.5 kb/s
  257. Count of elements                        : 1594
  258. Stream size                              : 8.71 MiB (0%)
  259. Title                                    : Korean-PGS
  260. Language                                 : Korean
  261. Default                                  : No
  262. Forced                                   : No
  263. Text #15
  264. ID                                       : 18
  265. Format                                   : PGS
  266. Muxing mode                              : zlib
  267. Codec ID                                 : S_HDMV/PGS
  268. Codec ID/Info                            : Picture based subtitle format used on BDs/HD-DVDs
  269. Duration                                 : 1 h 46 min
  270. Bit rate                                 : 20.0 kb/s
  271. Count of elements                        : 1622
  272. Stream size                              : 15.2 MiB (0%)
  273. Title                                    : Greek-PGS
  274. Language                                 : Greek
  275. Default                                  : No
  276. Forced                                   : No
  277. Text #16
  278. ID                                       : 19
  279. Format                                   : PGS
  280. Muxing mode                              : zlib
  281. Codec ID                                 : S_HDMV/PGS
  282. Codec ID/Info                            : Picture based subtitle format used on BDs/HD-DVDs
  283. Duration                                 : 1 h 46 min
  284. Bit rate                                 : 18.2 kb/s
  285. Count of elements                        : 1552
  286. Stream size                              : 13.8 MiB (0%)
  287. Title                                    : Romanian-PGS
  288. Language                                 : Romanian
  289. Default                                  : No
  290. Forced                                   : No
  291. Menu
  292. 00:00:00.000                             : en:Chapter 01
  293. 00:07:26.279                             : en:Chapter 02
  294. 00:11:44.745                             : en:Chapter 03
  295. 00:16:46.630                             : en:Chapter 04
  296. 00:24:24.129                             : en:Chapter 05
  297. 00:29:05.452                             : en:Chapter 06
  298. 00:34:05.209                             : en:Chapter 07
  299. 00:37:30.831                             : en:Chapter 08
  300. 00:46:07.389                             : en:Chapter 09
  301. 00:53:37.255                             : en:Chapter 10
  302. 00:58:14.866                             : en:Chapter 11
  303. 01:04:49.218                             : en:Chapter 12
  304. 01:07:29.920                             : en:Chapter 13
  305. 01:12:01.692                             : en:Chapter 14
  306. 01:14:46.565                             : en:Chapter 15
  307. 01:20:36.206                             : en:Chapter 16
  308. 01:25:03.306                             : en:Chapter 17
  309. 01:29:09.427                             : en:Chapter 18
  310. 01:35:55.040                             : en:Chapter 19
  311. 01:39:24.750                             : en:Chapter 20
复制代码








                                       
                                       

                                       
                                       
                                       




回复

使用道具 举报

懒得打字嘛,点击右侧快捷回复 【右侧内容,后台自定义】
您需要登录后才可以回帖 登录 | 立即加入

本版积分规则

Archiver|小黑屋| 蓝光电影网 |网站地图

Copyright © 2021 Comsenz Inc. Powered by 蓝光电影网

蓝光电影网

本站内容由用户自主分享和转载自互联网,转载目的在于传递更多信息,并不代表本网赞同其观点和对其真实性负责。

如有侵权、违反国家法律政策行为,请联系我们,我们会第一时间及时清除和处理!

举报反馈邮箱:[email protected]

快速回复 返回顶部 返回列表