找回密码

蓝光电影网

查看: 7|回复: 0

[UHD.HEVC] 驯龙高手3 How.to.Train.Your.Dragon.The.Hidden.World.2019.2160p.BluRay.REMUX.HEVC.DTS-HD.MA.TrueHD.7.1.Atmos-FGT 60.67GB

[复制链接]
蓝光币
382
发表于 2019-5-22 19:42:50 | 显示全部楼层 |阅读模式




◎译  名 驯龙高手3 / How to Train Your Dragon 3 / 驯龙记3(港) / 驯龙高手3:隐蔽的天下
◎片  名 How To Train Your Dragon: The Hidden World
◎年  代 2019
◎产  地 美国
◎类  别 动画 / 奇异 / 冒险
◎语  言 英语
◎上映日期 2019-01-03(澳大利亚) / 2019-02-22(美国) / 2019-03-01(中国大陆)
◎IMDb评分  7.6/10 from 55679 users
◎IMDb链接  http://www.imdb.com/title/tt2386490
◎豆瓣评分 7.5/10 from 121461 users
◎豆瓣链接 https://movie.douban.com/subject/19899707/
◎片  长 104分钟
◎导  演 迪恩·德布洛斯 Dean DeBlois
◎编  剧 迪恩·德布洛斯 Dean DeBlois / 葛蕾熙达·柯维尔 Cressida Cowell
◎主  演 杰伊·巴鲁切尔 Jay Baruchel
      亚美莉卡·费雷拉 America Ferrera
      F·默里·亚伯拉罕 F. Murray Abraham
      凯特·布兰切特 Cate Blanchett
      杰拉德·巴特勒 Gerard Butler
      克雷格·费格森 Craig Ferguson
      乔纳·希尔 Jonah Hill
      克里斯托夫·梅兹-普莱瑟 Christopher Mintz-Plasse
      克里斯汀·韦格 Kristen Wiig
      基特·哈灵顿 Kit Harington
      罗宾·阿特金·唐斯 Robin Atkin Downes
      基隆·埃利奥特 Kieron Elliott
      吉迪恩·埃默里 Gideon Emery
      阿什利·詹森 Ashley Jensen
      奥拉维尔·达里·奥拉夫松 ólafur Darri ólafsson
      詹姆士·谢 James Sie
      大卫·田纳特 David Tennant

◎标  签 动画 | 梦工场 | 美国 | 温情 | 长大 | 2019 | 奇异 | 冒险
◎简  介  
  梦工场动画将倾情奉献一段跌宕升沉的故事,仆人公们不竭长大,寻觅面临未知的勇气,始终不离不弃。一位维京少年和一只使人生畏的夜煞飞龙之间看似不成能的友谊,已经演酿成了一段延续相互平生的史诗级冒险。这即是行将上映的《驯龙高手3》,也是影史上最受接待的动画系列之一《驯龙高手》系列最为浓墨重彩的崭新篇章。
管辖伯克岛的酋长嗝嗝,与阿丝翠德配合打造了一个奇妙而热烈的飞龙乌托邦。而一只雌性光煞飞龙的意外出现,加上一个史无前例的威胁的到来,令嗝嗝和没牙仔不能不分开自己唯一的故里,前往他们本以为只存在于神话当中的隐蔽之境。在发现自己实在的命运以后,飞龙与骑士将携手殊死奋战,庇护他们所珍重的一切。
  1. Video
  2. ID                                       : 1
  3. Format                                   : HEVC
  4. Format/Info                              : High Efficiency Video Coding
  5. Commercial name                          : HDR10
  6. Format profile                           : Main [email protected]@High
  7. Codec ID                                 : V_MPEGH/ISO/HEVC
  8. Duration                                 : 1 h 44 min
  9. Bit rate                                 : 75.3 Mb/s
  10. Width                                    : 3 840 pixels
  11. Height                                   : 2 160 pixels
  12. Display aspect ratio                     : 16:9
  13. Frame rate mode                          : Constant
  14. Frame rate                               : 23.976 (24000/1001) FPS
  15. Color space                              : YUV
  16. Chroma subsampling                       : 4:2:0 (Type 2)
  17. Bit depth                                : 10 bits
  18. Bits/(Pixel*Frame)                       : 0.379
  19. Stream size                              : 54.8 GiB (90%)
  20. Title                                    : How.to.Train.Your.Dragon.The.Hidden.World.2019.2160p.BluRay.REMUX.HEVC.DTS-HD.MA.TrueHD.7.1.Atmos-FGT
  21. Writing library                          : ATEME Titan File 3.9.0 (4.9.0.0)        
  22. Default                                  : Yes
  23. Forced                                   : No
  24. Color range                              : Limited
  25. Color primaries                          : BT.2020
  26. Transfer characteristics                 : PQ
  27. Matrix coefficients                      : BT.2020 non-constant
  28. Mastering display color primaries        : Display P3
  29. Mastering display luminance              : min: 0.0050 cd/m2, max: 1000 cd/m2
  30. Maximum Content Light Level              : 845 cd/m2
  31. Maximum Frame-Average Light Level        : 196 cd/m2
  32. Audio #1
  33. ID                                       : 2
  34. Format                                   : MLP FBA 16-ch
  35. Format/Info                              : Meridian Lossless Packing FBA with 16-channel presentation
  36. Commercial name                          : Dolby TrueHD with Dolby Atmos
  37. Codec ID                                 : A_TRUEHD
  38. Duration                                 : 1 h 44 min
  39. Bit rate mode                            : Variable
  40. Bit rate                                 : 3 312 kb/s
  41. Maximum bit rate                         : 5 016 kb/s
  42. Channel(s)                               : 8 channels
  43. Channel layout                           : L R C LFE Ls Rs Lb Rb
  44. Sampling rate                            : 48.0 kHz
  45. Frame rate                               : 1 200.000 FPS (40 SPF)
  46. Compression mode                         : Lossless
  47. Delay relative to video                  : 31 ms
  48. Stream size                              : 2.41 GiB (4%)
  49. Title                                    : How.to.Train.Your.Dragon.The.Hidden.World.2019.2160p.BluRay.REMUX.HEVC.DTS-HD.MA.TrueHD.7.1.Atmos-FGT
  50. Language                                 : English
  51. Default                                  : Yes
  52. Forced                                   : No
  53. Number of dynamic objects                : 11
  54. Bed channel count                        : 1 channel
  55. Bed channel configuration                : LFE
  56. Audio #2
  57. ID                                       : 3
  58. Format                                   : DTS XLL
  59. Format/Info                              : Digital Theater Systems
  60. Commercial name                          : DTS-HD Master Audio
  61. Codec ID                                 : A_DTS
  62. Duration                                 : 1 h 44 min
  63. Bit rate mode                            : Variable
  64. Bit rate                                 : 4 043 kb/s
  65. Channel(s)                               : 8 channels
  66. Channel layout                           : C L R LFE Lb Rb Lss Rss
  67. Sampling rate                            : 48.0 kHz
  68. Frame rate                               : 93.750 FPS (512 SPF)
  69. Bit depth                                : 24 bits
  70. Compression mode                         : Lossless
  71. Delay relative to video                  : -1 ms
  72. Stream size                              : 2.94 GiB (5%)
  73. Title                                    : How.to.Train.Your.Dragon.The.Hidden.World.2019.2160p.BluRay.REMUX.HEVC.DTS-HD.MA.TrueHD.7.1.Atmos-FGT
  74. Default                                  : No
  75. Forced                                   : No
  76. Audio #3
  77. ID                                       : 4
  78. Format                                   : AC-3
  79. Format/Info                              : Audio Coding 3
  80. Commercial name                          : Dolby Digital
  81. Codec ID                                 : A_AC3
  82. Duration                                 : 1 h 44 min
  83. Bit rate mode                            : Constant
  84. Bit rate                                 : 448 kb/s
  85. Channel(s)                               : 6 channels
  86. Channel layout                           : L R C LFE Ls Rs
  87. Sampling rate                            : 48.0 kHz
  88. Frame rate                               : 31.250 FPS (1536 SPF)
  89. Bit depth                                : 16 bits
  90. Compression mode                         : Lossy
  91. Delay relative to video                  : 31 ms
  92. Stream size                              : 334 MiB (1%)
  93. Title                                    : How.to.Train.Your.Dragon.The.Hidden.World.2019.2160p.BluRay.REMUX.HEVC.DTS-HD.MA.TrueHD.7.1.Atmos-FGT
  94. Language                                 : English
  95. Service kind                             : Complete Main
  96. Default                                  : No
  97. Forced                                   : No
  98. Audio #4
  99. ID                                       : 5
  100. Format                                   : AC-3
  101. Format/Info                              : Audio Coding 3
  102. Commercial name                          : Dolby Digital
  103. Codec ID                                 : A_AC3
  104. Duration                                 : 1 h 44 min
  105. Bit rate mode                            : Constant
  106. Bit rate                                 : 192 kb/s
  107. Channel(s)                               : 2 channels
  108. Channel layout                           : L R
  109. Sampling rate                            : 48.0 kHz
  110. Frame rate                               : 31.250 FPS (1536 SPF)
  111. Bit depth                                : 16 bits
  112. Compression mode                         : Lossy
  113. Stream size                              : 143 MiB (0%)
  114. Title                                    : How.to.Train.Your.Dragon.The.Hidden.World.2019.2160p.BluRay.REMUX.HEVC.DTS-HD.MA.TrueHD.7.1.Atmos-FGT
  115. Language                                 : English
  116. Service kind                             : Complete Main
  117. Default                                  : No
  118. Forced                                   : No
  119. Text #1
  120. ID                                       : 6
  121. Format                                   : UTF-8
  122. Codec ID                                 : S_TEXT/UTF8
  123. Codec ID/Info                            : UTF-8 Plain Text
  124. Duration                                 : 1 h 32 min
  125. Bit rate                                 : 47 b/s
  126. Count of elements                        : 1100
  127. Stream size                              : 32.2 KiB (0%)
  128. Title                                    : English-SRT
  129. Language                                 : English
  130. Default                                  : Yes
  131. Forced                                   : No
  132. Text #2
  133. ID                                       : 7
  134. Format                                   : UTF-8
  135. Codec ID                                 : S_TEXT/UTF8
  136. Codec ID/Info                            : UTF-8 Plain Text
  137. Duration                                 : 1 h 32 min
  138. Bit rate                                 : 59 b/s
  139. Count of elements                        : 1542
  140. Stream size                              : 40.2 KiB (0%)
  141. Title                                    : English-SDH-SRT
  142. Language                                 : English
  143. Default                                  : No
  144. Forced                                   : No
  145. Text #3
  146. ID                                       : 8
  147. Format                                   : PGS
  148. Muxing mode                              : zlib
  149. Codec ID                                 : S_HDMV/PGS
  150. Codec ID/Info                            : Picture based subtitle format used on BDs/HD-DVDs
  151. Duration                                 : 1 h 32 min
  152. Bit rate                                 : 42.1 kb/s
  153. Count of elements                        : 3090
  154. Stream size                              : 28.0 MiB (0%)
  155. Title                                    : English-PGS
  156. Language                                 : English
  157. Default                                  : No
  158. Forced                                   : No
  159. Text #4
  160. ID                                       : 9
  161. Format                                   : PGS
  162. Muxing mode                              : zlib
  163. Codec ID                                 : S_HDMV/PGS
  164. Codec ID/Info                            : Picture based subtitle format used on BDs/HD-DVDs
  165. Duration                                 : 1 h 37 min
  166. Bit rate                                 : 69.7 kb/s
  167. Count of elements                        : 3238
  168. Stream size                              : 48.4 MiB (0%)
  169. Title                                    : English-COMMENTARY-PGS
  170. Language                                 : English
  171. Default                                  : No
  172. Forced                                   : No
  173. Menu
  174. 00:00:00.000                             : :Chapter 1
  175. 00:05:13.521                             : :Chapter 2
  176. 00:10:26.834                             : :Chapter 3
  177. 00:14:52.224                             : :Chapter 4
  178. 00:20:33.065                             : :Chapter 5
  179. 00:24:38.685                             : :Chapter 6
  180. 00:28:40.885                             : :Chapter 7
  181. 00:31:10.118                             : :Chapter 8
  182. 00:37:35.127                             : :Chapter 9
  183. 00:44:38.550                             : :Chapter 10
  184. 00:47:53.579                             : :Chapter 11
  185. 00:53:11.021                             : :Chapter 12
  186. 00:57:36.286                             : :Chapter 13
  187. 01:01:25.056                             : :Chapter 14
  188. 01:08:55.923                             : :Chapter 15
  189. 01:14:17.703                             : :Chapter 16
  190. 01:19:31.141                             : :Chapter 17
  191. 01:23:23.289                             : :Chapter 18
  192. 01:28:24.716                             : :Chapter 19
  193. 01:33:53.377                             : :Chapter 20
复制代码






                                       
                                       

                                       
                                       
                                       




驯龙高手3 How.to.Train.Your.Dragon.The.Hidden.World.2019.2160p.BluRay.REMUX.HEVC.DTS-HD.MA.TrueHD.7.1.Atmos-FGT 60.67GB

How.to.Train.Your.Dragon.The.Hidden.World.2019.2160p.BluRay.REMUX.HEVC.DTS-HD.MA.torrent

152.3 KB, 下载次数: 0, 下载积分: 蓝光币 -2

回复

使用道具 举报

懒得打字嘛,点击右侧快捷回复 【右侧内容,后台自定义】
您需要登录后才可以回帖 登录 | 立即加入

本版积分规则

Archiver|小黑屋| 蓝光电影网 |网站地图

Copyright © 2021 Comsenz Inc. Powered by 蓝光电影网

蓝光电影网

本站内容由用户自主分享和转载自互联网,转载目的在于传递更多信息,并不代表本网赞同其观点和对其真实性负责。

如有侵权、违反国家法律政策行为,请联系我们,我们会第一时间及时清除和处理!

举报反馈邮箱:[email protected]

快速回复 返回顶部 返回列表