找回密码

蓝光电影网

查看: 6|回复: 0

[2160p] 速度与激情4 Fast.and.Furious.2009.2160p.BluRay.x265.10bit.SDR.DTS-X.7.1-SWTYBLZ 35.39GB

[复制链接]
蓝光币
382
发表于 2019-6-26 19:23:24 | 显示全部楼层 |阅读模式


◎译  名 速度与豪情4 / Fast and Furious 4 / 狂野时速4 / 玩命关头4 / 赛车风云
◎片  名 Fast & Furious
◎年  代 2009
◎产  地 美国
◎类  别 行动 / 犯罪
◎语  言 英语
◎上映日期 2009-04-03(美国) / 2009-04-15(中国大陆)
◎IMDb评分  6.6/10 from 242737 users
◎IMDb链接  http://www.imdb.com/title/tt1013752
◎豆瓣评分 7.7/10 from 107749 users
◎豆瓣链接 https://movie.douban.com/subject/2132930/
◎片  长 107 分钟
◎导  演 林诣彬 Justin Lin
◎编  剧 克里斯·摩根 Chris Morgan / 盖瑞·斯科特·汤普森 Gary Scott Thompson
◎主  演 范·迪塞尔 Vin Diesel
      保罗·沃克 Paul Walker
      米歇尔·罗德里格兹 Michelle Rodriguez
      乔丹娜·布鲁斯特 Jordana Brewster
      盖尔·加朵 Gal Gadot
      约翰·奥提兹 John Ortiz
      拉兹·阿隆索 Laz Alonso
      谢伊·惠格姆 Shea Whigham
      莉萨·拉皮拉 Liza Lapira
      姜成镐 Sung Kang
      格雷格·西佩斯 Greg Cipes

◎标  签 行动 | 美国 | 赛车 | 速度与豪情 | 犯罪 | 2009 | 飙车 | VinDiesel
◎简  介  
  在《速度与豪情1》中,为了回避差人的追捕,多米尼克(范·迪塞尔 Vin Diesel 饰)分开洛杉矶一向亡命于多米尼加共和国。而一车代价140万美金的石油装载车让蛰伏多年的多米尼克再次驾车驰骋起来。而这时,却传来朱颜知己莉迪(米歇尔·罗德里格兹 Michelle Rodriguez 饰)惨死的消息。为了查明真相,义愤填膺的多米尼克再次孤身赶回美国。本来,莉迪是为了获得赦宥多米尼克的机遇,而辅佐警局抓捕大毒枭坎波斯(约翰·奥提兹 John Ortiz 饰)。不外出于习惯,坎波斯将输送毒品后的莉迪杀人灭口。这样,一边是为女友报仇的多米尼克,一边是历练多年的警探布莱恩(保罗·沃克 Paul Walker 饰),两人再次携手,方针直指大毒枭巴尔加。一场缓慢复仇就此展开……
《速度与豪情4》相沿了第三部东京漂移的华裔导演林诣彬,剧情上跳过第三部,间接承袭第二部,可以说是彻完全底的正统续作。
◎获奖情况  
  第18届MTV电影奖(2009)
  MTV电影奖 最好男演员(提名) 范·迪塞尔
  第11届美国青少年挑选奖(2009)
  最好行动冒险电影(提名)
  最好行动冒险电影男演员(提名) 保罗·沃克
  最好行动冒险电影女演员 乔丹娜·布鲁斯特

  1. Video
  2. ID                                       : 1
  3. Format                                   : HEVC
  4. Format/Info                              : High Efficiency Video Coding
  5. Format profile                           : Main [email protected]@High
  6. Codec ID                                 : V_MPEGH/ISO/HEVC
  7. Duration                                 : 1 h 46 min
  8. Bit rate                                 : 42.5 Mb/s
  9. Width                                    : 3 840 pixels
  10. Height                                   : 1 600 pixels
  11. Display aspect ratio                     : 2.40:1
  12. Frame rate mode                          : Constant
  13. Frame rate                               : 23.976 (24000/1001) FPS
  14. Color space                              : YUV
  15. Chroma subsampling                       : 4:2:0
  16. Bit depth                                : 10 bits
  17. Bits/(Pixel*Frame)                       : 0.288
  18. Stream size                              : 31.7 GiB (90%)
  19. Title                                    : Fast.and.Furious.2009.2160p.BluRay.x265.10bit.SDR.DTS-X.7.1-SWTYBLZ
  20. Writing library                          : x265 3.0ed72af837053:[Windows][GCC 8.2.0][64 bit] 10bit
  21. Encoding settings                        : cpuid=1111039 / frame-threads=16 / numa-pools=44,44 / wpp / no-pmode / no-pme / no-psnr / no-ssim / log-level=2 / input-csp=1 / input-res=3840x1600 / interlace=0 / total-frames=153615 / level-idc=51 / high-tier=1 / uhd-bd=0 / ref=3 / no-allow-non-conformance / repeat-headers / annexb / aud / hrd / info / hash=0 / no-temporal-layers / no-open-gop / min-keyint=1 / keyint=24 / gop-lookahead=0 / bframes=4 / b-adapt=2 / b-pyramid / bframe-bias=0 / rc-lookahead=25 / lookahead-slices=4 / scenecut=40 / radl=0 / no-splice / no-intra-refresh / ctu=64 / min-cu-size=8 / no-rect / no-amp / max-tu-size=32 / tu-inter-depth=1 / tu-intra-depth=1 / limit-tu=0 / rdoq-level=0 / dynamic-rd=0.00 / no-ssim-rd / signhide / no-tskip / nr-intra=0 / nr-inter=0 / no-constrained-intra / strong-intra-smoothing / max-merge=2 / limit-refs=3 / no-limit-modes / me=1 / subme=2 / merange=57 / temporal-mvp / weightp / no-weightb / no-analyze-src-pics / deblock=0:0 / no-sao / no-sao-non-deblock / rd=3 / no-early-skip / rskip / no-fast-intra / no-tskip-fast / no-cu-lossless / no-b-intra / no-splitrd-skip / rdpenalty=0 / psy-rd=2.00 / psy-rdoq=0.00 / no-rd-refine / no-lossless / cbqpoffs=0 / crqpoffs=0 / rc=crf / crf=16.0 / qcomp=0.60 / qpstep=4 / stats-write=0 / stats-read=0 / vbv-maxrate=160000 / vbv-bufsize=160000 / vbv-init=0.9 / crf-max=0.0 / crf-min=0.0 / ipratio=1.40 / pbratio=1.30 / aq-mode=1 / aq-strength=1.00 / cutree / zone-count=0 / no-strict-cbr / qg-size=32 / no-rc-grain / qpmax=69 / qpmin=0 / no-const-vbv / sar=1 / overscan=0 / videoformat=5 / range=0 / colorprim=2 / transfer=2 / colormatrix=2 / chromaloc=0 / display-window=0 / max-cll=0,0 / min-luma=0 / max-luma=1023 / log2-max-poc-lsb=8 / vui-timing-info / vui-hrd-info / slices=1 / opt-qp-pps / opt-ref-list-length-pps / no-multi-pass-opt-rps / scenecut-bias=0.05 / no-opt-cu-delta-qp / no-aq-motion / no-hdr / no-hdr-opt / no-dhdr10-opt / no-idr-recovery-sei / analysis-reuse-level=5 / scale-factor=0 / refine-intra=0 / refine-inter=0 / refine-mv=0 / refine-ctu-distortion=0 / no-limit-sao / ctu-info=0 / no-lowpass-dct / refine-analysis-type=0 / copy-pic=1 / max-ausize-factor=1.0 / no-dynamic-refine / no-single-sei / no-hevc-aq / qp-adaptation-range=1.00
  22. Default                                  : Yes
  23. Forced                                   : No
  24. Audio #1
  25. ID                                       : 2
  26. Format                                   : DTS XLL X
  27. Format/Info                              : Digital Theater Systems
  28. Commercial name                          : DTS-HD Master Audio
  29. Codec ID                                 : A_DTS
  30. Duration                                 : 1 h 46 min
  31. Bit rate mode                            : Variable
  32. Bit rate                                 : 4 106 kb/s
  33. Channel(s)                               : 8 channels
  34. Channel(s)_Original                      : Object Based
  35. Channel layout                           : Object Based
  36. Sampling rate                            : 48.0 kHz
  37. Frame rate                               : 93.750 FPS (512 SPF)
  38. Bit depth                                : 24 bits
  39. Stream size                              : 3.06 GiB (9%)
  40. Title                                    : Fast.and.Furious.2009.2160p.BluRay.x265.10bit.SDR.DTS-X.7.1-SWTYBLZ
  41. Language                                 : English
  42. Default                                  : Yes
  43. Forced                                   : No
  44. Audio #2
  45. ID                                       : 3
  46. Format                                   : AC-3
  47. Format/Info                              : Audio Coding 3
  48. Commercial name                          : Dolby Digital
  49. Codec ID                                 : A_AC3
  50. Duration                                 : 1 h 46 min
  51. Bit rate mode                            : Constant
  52. Bit rate                                 : 640 kb/s
  53. Channel(s)                               : 6 channels
  54. Channel layout                           : L R C LFE Ls Rs
  55. Sampling rate                            : 48.0 kHz
  56. Frame rate                               : 31.250 FPS (1536 SPF)
  57. Bit depth                                : 16 bits
  58. Compression mode                         : Lossy
  59. Stream size                              : 489 MiB (1%)
  60. Title                                    : Fast.and.Furious.2009.2160p.BluRay.x265.10bit.SDR.DTS-X.7.1-SWTYBLZ
  61. Language                                 : English
  62. Service kind                             : Complete Main
  63. Default                                  : No
  64. Forced                                   : No
  65. Text #1
  66. ID                                       : 4
  67. Format                                   : UTF-8
  68. Codec ID                                 : S_TEXT/UTF8
  69. Codec ID/Info                            : UTF-8 Plain Text
  70. Duration                                 : 1 h 37 min
  71. Bit rate                                 : 35 b/s
  72. Count of elements                        : 753
  73. Stream size                              : 25.1 KiB (0%)
  74. Title                                    : English-SRT
  75. Language                                 : English
  76. Default                                  : Yes
  77. Forced                                   : No
  78. Text #2
  79. ID                                       : 5
  80. Format                                   : UTF-8
  81. Codec ID                                 : S_TEXT/UTF8
  82. Codec ID/Info                            : UTF-8 Plain Text
  83. Duration                                 : 1 h 38 min
  84. Bit rate                                 : 39 b/s
  85. Count of elements                        : 933
  86. Stream size                              : 28.1 KiB (0%)
  87. Title                                    : English-SDH-SRT
  88. Language                                 : English
  89. Default                                  : No
  90. Forced                                   : No
  91. Text #3
  92. ID                                       : 6
  93. Format                                   : PGS
  94. Muxing mode                              : zlib
  95. Codec ID                                 : S_HDMV/PGS
  96. Codec ID/Info                            : Picture based subtitle format used on BDs/HD-DVDs
  97. Duration                                 : 1 h 38 min
  98. Bit rate                                 : 26.8 kb/s
  99. Count of elements                        : 1974
  100. Stream size                              : 18.8 MiB (0%)
  101. Title                                    : English-PGS
  102. Language                                 : English
  103. Default                                  : No
  104. Forced                                   : No
  105. Text #4
  106. ID                                       : 7
  107. Format                                   : PGS
  108. Muxing mode                              : zlib
  109. Codec ID                                 : S_HDMV/PGS
  110. Codec ID/Info                            : Picture based subtitle format used on BDs/HD-DVDs
  111. Duration                                 : 1 h 46 min
  112. Bit rate                                 : 17.1 kb/s
  113. Count of elements                        : 1502
  114. Stream size                              : 13.0 MiB (0%)
  115. Title                                    : French-PGS
  116. Language                                 : French
  117. Default                                  : No
  118. Forced                                   : No
  119. Text #5
  120. ID                                       : 8
  121. Format                                   : PGS
  122. Muxing mode                              : zlib
  123. Codec ID                                 : S_HDMV/PGS
  124. Codec ID/Info                            : Picture based subtitle format used on BDs/HD-DVDs
  125. Duration                                 : 1 h 46 min
  126. Bit rate                                 : 14.8 kb/s
  127. Count of elements                        : 1386
  128. Stream size                              : 11.2 MiB (0%)
  129. Title                                    : Dutch-PGS
  130. Language                                 : Dutch
  131. Default                                  : No
  132. Forced                                   : No
  133. Text #6
  134. ID                                       : 9
  135. Format                                   : PGS
  136. Muxing mode                              : zlib
  137. Codec ID                                 : S_HDMV/PGS
  138. Codec ID/Info                            : Picture based subtitle format used on BDs/HD-DVDs
  139. Duration                                 : 1 h 46 min
  140. Bit rate                                 : 18.6 kb/s
  141. Count of elements                        : 1552
  142. Stream size                              : 14.1 MiB (0%)
  143. Title                                    : Danish-PGS
  144. Language                                 : Danish
  145. Default                                  : No
  146. Forced                                   : No
  147. Text #7
  148. ID                                       : 10
  149. Format                                   : PGS
  150. Muxing mode                              : zlib
  151. Codec ID                                 : S_HDMV/PGS
  152. Codec ID/Info                            : Picture based subtitle format used on BDs/HD-DVDs
  153. Duration                                 : 1 h 46 min
  154. Bit rate                                 : 16.0 kb/s
  155. Count of elements                        : 1408
  156. Stream size                              : 12.1 MiB (0%)
  157. Title                                    : Finnish-PGS
  158. Language                                 : Finnish
  159. Default                                  : No
  160. Forced                                   : No
  161. Text #8
  162. ID                                       : 11
  163. Format                                   : PGS
  164. Muxing mode                              : zlib
  165. Codec ID                                 : S_HDMV/PGS
  166. Codec ID/Info                            : Picture based subtitle format used on BDs/HD-DVDs
  167. Duration                                 : 1 h 46 min
  168. Bit rate                                 : 15.6 kb/s
  169. Count of elements                        : 1546
  170. Stream size                              : 11.9 MiB (0%)
  171. Title                                    : Norwegian-PGS
  172. Language                                 : Norwegian
  173. Default                                  : No
  174. Forced                                   : No
  175. Text #9
  176. ID                                       : 12
  177. Format                                   : PGS
  178. Muxing mode                              : zlib
  179. Codec ID                                 : S_HDMV/PGS
  180. Codec ID/Info                            : Picture based subtitle format used on BDs/HD-DVDs
  181. Duration                                 : 1 h 46 min
  182. Bit rate                                 : 20.6 kb/s
  183. Count of elements                        : 1618
  184. Stream size                              : 15.6 MiB (0%)
  185. Title                                    : Swedish-PGS
  186. Language                                 : Swedish
  187. Default                                  : No
  188. Forced                                   : No
  189. Text #10
  190. ID                                       : 13
  191. Format                                   : PGS
  192. Muxing mode                              : zlib
  193. Codec ID                                 : S_HDMV/PGS
  194. Codec ID/Info                            : Picture based subtitle format used on BDs/HD-DVDs
  195. Duration                                 : 1 h 46 min
  196. Bit rate                                 : 18.0 kb/s
  197. Count of elements                        : 1598
  198. Stream size                              : 13.7 MiB (0%)
  199. Title                                    : Czech-PGS
  200. Language                                 : Czech
  201. Default                                  : No
  202. Forced                                   : No
  203. Text #11
  204. ID                                       : 14
  205. Format                                   : PGS
  206. Muxing mode                              : zlib
  207. Codec ID                                 : S_HDMV/PGS
  208. Codec ID/Info                            : Picture based subtitle format used on BDs/HD-DVDs
  209. Duration                                 : 1 h 46 min
  210. Bit rate                                 : 16.7 kb/s
  211. Count of elements                        : 1558
  212. Stream size                              : 12.7 MiB (0%)
  213. Title                                    : Hungarian-PGS
  214. Language                                 : Hungarian
  215. Default                                  : No
  216. Forced                                   : No
  217. Text #12
  218. ID                                       : 15
  219. Format                                   : PGS
  220. Muxing mode                              : zlib
  221. Codec ID                                 : S_HDMV/PGS
  222. Codec ID/Info                            : Picture based subtitle format used on BDs/HD-DVDs
  223. Duration                                 : 1 h 46 min
  224. Bit rate                                 : 18.7 kb/s
  225. Count of elements                        : 1572
  226. Stream size                              : 14.2 MiB (0%)
  227. Title                                    : Polish-PGS
  228. Language                                 : Polish
  229. Default                                  : No
  230. Forced                                   : No
  231. Text #13
  232. ID                                       : 16
  233. Format                                   : PGS
  234. Muxing mode                              : zlib
  235. Codec ID                                 : S_HDMV/PGS
  236. Codec ID/Info                            : Picture based subtitle format used on BDs/HD-DVDs
  237. Duration                                 : 1 h 46 min
  238. Bit rate                                 : 16.5 kb/s
  239. Count of elements                        : 1622
  240. Stream size                              : 12.5 MiB (0%)
  241. Title                                    : Chinese-PGS
  242. Language                                 : Chinese
  243. Default                                  : No
  244. Forced                                   : No
  245. Text #14
  246. ID                                       : 17
  247. Format                                   : PGS
  248. Muxing mode                              : zlib
  249. Codec ID                                 : S_HDMV/PGS
  250. Codec ID/Info                            : Picture based subtitle format used on BDs/HD-DVDs
  251. Duration                                 : 1 h 46 min
  252. Bit rate                                 : 11.5 kb/s
  253. Count of elements                        : 1594
  254. Stream size                              : 8.71 MiB (0%)
  255. Title                                    : Korean-PGS
  256. Language                                 : Korean
  257. Default                                  : No
  258. Forced                                   : No
  259. Text #15
  260. ID                                       : 18
  261. Format                                   : PGS
  262. Muxing mode                              : zlib
  263. Codec ID                                 : S_HDMV/PGS
  264. Codec ID/Info                            : Picture based subtitle format used on BDs/HD-DVDs
  265. Duration                                 : 1 h 46 min
  266. Bit rate                                 : 20.0 kb/s
  267. Count of elements                        : 1622
  268. Stream size                              : 15.2 MiB (0%)
  269. Title                                    : Greek-PGS
  270. Language                                 : Greek
  271. Default                                  : No
  272. Forced                                   : No
  273. Text #16
  274. ID                                       : 19
  275. Format                                   : PGS
  276. Muxing mode                              : zlib
  277. Codec ID                                 : S_HDMV/PGS
  278. Codec ID/Info                            : Picture based subtitle format used on BDs/HD-DVDs
  279. Duration                                 : 1 h 46 min
  280. Bit rate                                 : 18.2 kb/s
  281. Count of elements                        : 1552
  282. Stream size                              : 13.8 MiB (0%)
  283. Title                                    : Romanian-PGS
  284. Language                                 : Romanian
  285. Default                                  : No
  286. Forced                                   : No
  287. Menu
  288. 00:00:00.000                             : en:Chapter 01
  289. 00:07:26.279                             : en:Chapter 02
  290. 00:11:44.745                             : en:Chapter 03
  291. 00:16:46.630                             : en:Chapter 04
  292. 00:24:24.129                             : en:Chapter 05
  293. 00:29:05.452                             : en:Chapter 06
  294. 00:34:05.209                             : en:Chapter 07
  295. 00:37:30.831                             : en:Chapter 08
  296. 00:46:07.389                             : en:Chapter 09
  297. 00:53:37.255                             : en:Chapter 10
  298. 00:58:14.866                             : en:Chapter 11
  299. 01:04:49.218                             : en:Chapter 12
  300. 01:07:29.920                             : en:Chapter 13
  301. 01:12:01.692                             : en:Chapter 14
  302. 01:14:46.565                             : en:Chapter 15
  303. 01:20:36.206                             : en:Chapter 16
  304. 01:25:03.306                             : en:Chapter 17
  305. 01:29:09.427                             : en:Chapter 18
  306. 01:35:55.040                             : en:Chapter 19
  307. 01:39:24.750                             : en:Chapter 20
复制代码








                                       
                                       

                                       
                                       
                                       




回复

使用道具 举报

懒得打字嘛,点击右侧快捷回复 【右侧内容,后台自定义】
您需要登录后才可以回帖 登录 | 立即加入

本版积分规则

Archiver|小黑屋| 蓝光电影网 |网站地图

Copyright © 2021 Comsenz Inc. Powered by 蓝光电影网

蓝光电影网

本站内容由用户自主分享和转载自互联网,转载目的在于传递更多信息,并不代表本网赞同其观点和对其真实性负责。

如有侵权、违反国家法律政策行为,请联系我们,我们会第一时间及时清除和处理!

举报反馈邮箱:[email protected]

快速回复 返回顶部 返回列表