找回密码

蓝光电影网

查看: 8|回复: 0

[UHD.HEVC] 正义联盟大战致命五人组 Justice.League.vs.the.Fatal.Five.2019.2160p.BluRay.REMUX.HEVC.DTS-HD.MA.5.1-FGT 32.79GB

[复制链接]
蓝光币
426
发表于 2019-5-22 19:42:06 | 显示全部楼层 |阅读模式




◎译  名 正义同盟大战致命五人组
◎片  名 Justice League vs. The Fatal Five
◎年  代 2019
◎产  地 美国
◎类  别 行动 / 动画 / 奇异
◎语  言 英语
◎上映日期 2019-03-30(美国)
◎IMDb评分  6.5/10 from 3270 users
◎IMDb链接  http://www.imdb.com/title/tt8752474
◎豆瓣评分 6.3/10 from 1884 users
◎豆瓣链接 https://movie.douban.com/subject/30287729/
◎片  长 77分钟
◎导  演 刘山姆 Sam Liu
◎编  剧 艾伦·伯内特 Alan Burnett / 埃里克·卡拉斯科 Eric Carrasco / 詹姆斯·克里格 James Krieg / 吉姆·史哈特尔 Jim Shooter
◎主  演 凯文·康瑞 Kevin Conroy
      乔治·纽伯恩 George Newbern
      苏珊·爱森伯格 Susan Eisenberg
      丹妮拉·玻芭迪拉 Daniela Bobadilla
      素玛立·蒙塔诺 Sumalee Montano
      菲利普·安东尼-罗德里格斯 Philip Anthony-Rodriguez
      马修·杨·金 Matthew Yang King
      塔拉·斯特朗 Tara Strong
      黛安·格雷罗 Diane Guerrero

◎标  签 DC | 动画 | 正义同盟 | 超级豪杰 | 美国 | 2019 | 科幻 | DCAU
◎简  介  
  正义同盟将面临一群超级无赖,他们的气力甚至可以与天下上最巨大的超级豪杰在正义同盟与致命五人组(2019年上映的DC宇宙原创电影)中对抗。
  1. Video
  2. ID                                       : 1
  3. Format                                   : HEVC
  4. Format/Info                              : High Efficiency Video Coding
  5. Commercial name                          : HDR10
  6. Format profile                           : Main [email protected]@High
  7. Codec ID                                 : V_MPEGH/ISO/HEVC
  8. Duration                                 : 1 h 17 min
  9. Bit rate                                 : 57.0 Mb/s
  10. Width                                    : 3 840 pixels
  11. Height                                   : 2 160 pixels
  12. Display aspect ratio                     : 16:9
  13. Frame rate mode                          : Constant
  14. Frame rate                               : 23.976 (24000/1001) FPS
  15. Color space                              : YUV
  16. Chroma subsampling                       : 4:2:0 (Type 2)
  17. Bit depth                                : 10 bits
  18. Bits/(Pixel*Frame)                       : 0.287
  19. Stream size                              : 30.9 GiB (94%)
  20. Title                                    : Justice.League.vs.the.Fatal.Five.2019.2160p.BluRay.REMUX.HEVC.DTS-HD.MA.5.1-FGT
  21. Writing library                          : ATEME Titan File 3.9.0 (4.9.0.0)        
  22. Default                                  : Yes
  23. Forced                                   : No
  24. Color range                              : Limited
  25. Color primaries                          : BT.2020
  26. Transfer characteristics                 : PQ
  27. Matrix coefficients                      : BT.2020 non-constant
  28. Mastering display color primaries        : Display P3
  29. Mastering display luminance              : min: 0.0050 cd/m2, max: 4000 cd/m2
  30. Maximum Content Light Level              : 790 cd/m2
  31. Maximum Frame-Average Light Level        : 294 cd/m2
  32. Audio #1
  33. ID                                       : 2
  34. Format                                   : DTS XLL
  35. Format/Info                              : Digital Theater Systems
  36. Commercial name                          : DTS-HD Master Audio
  37. Codec ID                                 : A_DTS
  38. Duration                                 : 1 h 17 min
  39. Bit rate mode                            : Variable
  40. Bit rate                                 : 2 271 kb/s
  41. Channel(s)                               : 6 channels
  42. Channel layout                           : C L R Ls Rs LFE
  43. Sampling rate                            : 48.0 kHz
  44. Frame rate                               : 93.750 FPS (512 SPF)
  45. Bit depth                                : 24 bits
  46. Compression mode                         : Lossless
  47. Stream size                              : 1.23 GiB (4%)
  48. Title                                    : Justice.League.vs.the.Fatal.Five.2019.2160p.BluRay.REMUX.HEVC.DTS-HD.MA.5.1-FGT
  49. Language                                 : English
  50. Default                                  : Yes
  51. Forced                                   : No
  52. Audio #2
  53. ID                                       : 3
  54. Format                                   : AC-3
  55. Format/Info                              : Audio Coding 3
  56. Commercial name                          : Dolby Digital
  57. Codec ID                                 : A_AC3
  58. Duration                                 : 1 h 17 min
  59. Bit rate mode                            : Constant
  60. Bit rate                                 : 640 kb/s
  61. Channel(s)                               : 6 channels
  62. Channel layout                           : L R C LFE Ls Rs
  63. Sampling rate                            : 48.0 kHz
  64. Frame rate                               : 31.250 FPS (1536 SPF)
  65. Bit depth                                : 16 bits
  66. Compression mode                         : Lossy
  67. Stream size                              : 355 MiB (1%)
  68. Title                                    : Justice.League.vs.the.Fatal.Five.2019.2160p.BluRay.REMUX.HEVC.DTS-HD.MA.5.1-FGT
  69. Language                                 : French
  70. Service kind                             : Complete Main
  71. Default                                  : No
  72. Forced                                   : No
  73. Audio #3
  74. ID                                       : 4
  75. Format                                   : AC-3
  76. Format/Info                              : Audio Coding 3
  77. Commercial name                          : Dolby Digital
  78. Codec ID                                 : A_AC3
  79. Duration                                 : 1 h 17 min
  80. Bit rate mode                            : Constant
  81. Bit rate                                 : 640 kb/s
  82. Channel(s)                               : 6 channels
  83. Channel layout                           : L R C LFE Ls Rs
  84. Sampling rate                            : 48.0 kHz
  85. Frame rate                               : 31.250 FPS (1536 SPF)
  86. Bit depth                                : 16 bits
  87. Compression mode                         : Lossy
  88. Stream size                              : 355 MiB (1%)
  89. Title                                    : Justice.League.vs.the.Fatal.Five.2019.2160p.BluRay.REMUX.HEVC.DTS-HD.MA.5.1-FGT
  90. Language                                 : Spanish
  91. Service kind                             : Complete Main
  92. Default                                  : No
  93. Forced                                   : No
  94. Text #1
  95. ID                                       : 5
  96. Format                                   : UTF-8
  97. Codec ID                                 : S_TEXT/UTF8
  98. Codec ID/Info                            : UTF-8 Plain Text
  99. Duration                                 : 1 h 16 min
  100. Bit rate                                 : 37 b/s
  101. Count of elements                        : 671
  102. Stream size                              : 21.2 KiB (0%)
  103. Title                                    : English-SRT
  104. Language                                 : English
  105. Default                                  : Yes
  106. Forced                                   : No
  107. Text #2
  108. ID                                       : 6
  109. Format                                   : UTF-8
  110. Codec ID                                 : S_TEXT/UTF8
  111. Codec ID/Info                            : UTF-8 Plain Text
  112. Duration                                 : 1 h 16 min
  113. Bit rate                                 : 42 b/s
  114. Count of elements                        : 885
  115. Stream size                              : 23.6 KiB (0%)
  116. Title                                    : English-SRT
  117. Language                                 : English
  118. Default                                  : No
  119. Forced                                   : No
  120. Text #3
  121. ID                                       : 7
  122. Format                                   : PGS
  123. Muxing mode                              : zlib
  124. Codec ID                                 : S_HDMV/PGS
  125. Codec ID/Info                            : Picture based subtitle format used on BDs/HD-DVDs
  126. Duration                                 : 1 h 16 min
  127. Bit rate                                 : 25.9 kb/s
  128. Count of elements                        : 1774
  129. Stream size                              : 14.2 MiB (0%)
  130. Title                                    : English-PGS
  131. Language                                 : English
  132. Default                                  : No
  133. Forced                                   : No
  134. Text #4
  135. ID                                       : 8
  136. Format                                   : PGS
  137. Muxing mode                              : zlib
  138. Codec ID                                 : S_HDMV/PGS
  139. Codec ID/Info                            : Picture based subtitle format used on BDs/HD-DVDs
  140. Duration                                 : 1 h 16 min
  141. Bit rate                                 : 23.0 kb/s
  142. Count of elements                        : 1342
  143. Stream size                              : 12.6 MiB (0%)
  144. Title                                    : French-PGS
  145. Language                                 : French
  146. Default                                  : No
  147. Forced                                   : No
  148. Text #5
  149. ID                                       : 9
  150. Format                                   : PGS
  151. Muxing mode                              : zlib
  152. Codec ID                                 : S_HDMV/PGS
  153. Codec ID/Info                            : Picture based subtitle format used on BDs/HD-DVDs
  154. Duration                                 : 1 h 16 min
  155. Bit rate                                 : 21.9 kb/s
  156. Count of elements                        : 1342
  157. Stream size                              : 12.0 MiB (0%)
  158. Title                                    : Spanish-PGS
  159. Language                                 : Spanish
  160. Default                                  : No
  161. Forced                                   : No
  162. Text #6
  163. ID                                       : 10
  164. Format                                   : PGS
  165. Muxing mode                              : zlib
  166. Codec ID                                 : S_HDMV/PGS
  167. Codec ID/Info                            : Picture based subtitle format used on BDs/HD-DVDs
  168. Duration                                 : 1 h 14 min
  169. Bit rate                                 : 191 b/s
  170. Count of elements                        : 14
  171. Stream size                              : 105 KiB (0%)
  172. Title                                    : French-FORCED-PGS
  173. Language                                 : French
  174. Default                                  : No
  175. Forced                                   : No
  176. Text #7
  177. ID                                       : 11
  178. Format                                   : PGS
  179. Muxing mode                              : zlib
  180. Codec ID                                 : S_HDMV/PGS
  181. Codec ID/Info                            : Picture based subtitle format used on BDs/HD-DVDs
  182. Duration                                 : 1 h 14 min
  183. Bit rate                                 : 183 b/s
  184. Count of elements                        : 12
  185. Stream size                              : 100 KiB (0%)
  186. Title                                    : Spanish-FORCED-PGS
  187. Language                                 : Spanish
  188. Default                                  : No
  189. Forced                                   : No
  190. Menu
  191. 00:00:00.000                             : :Chapter 1
  192. 00:10:46.395                             : :Chapter 2
  193. 00:21:41.091                             : :Chapter 3
  194. 00:31:03.862                             : :Chapter 4
  195. 00:42:55.322                             : :Chapter 5
  196. 00:54:12.791                             : :Chapter 6
  197. 01:03:17.835                             : :Chapter 7
  198. 01:14:21.457                             : :Chapter 8
复制代码






                                       
                                       

                                       
                                       
                                       




回复

使用道具 举报

懒得打字嘛,点击右侧快捷回复 【右侧内容,后台自定义】
您需要登录后才可以回帖 登录 | 立即加入

本版积分规则

Archiver|小黑屋| 蓝光电影网 |网站地图

Copyright © 2021 Comsenz Inc. Powered by 蓝光电影网

蓝光电影网

本站内容由用户自主分享和转载自互联网,转载目的在于传递更多信息,并不代表本网赞同其观点和对其真实性负责。

如有侵权、违反国家法律政策行为,请联系我们,我们会第一时间及时清除和处理!

举报反馈邮箱:[email protected]

快速回复 返回顶部 返回列表