找回密码

蓝光电影网

查看: 10|回复: 0

[2160p] 蝎子王/蝎子王传奇盗墓迷城外传 The.Scorpion.King.2002.2160p.BluRay.x265.10bit.SDR.DTS-X.7.1-SWTYBLZ 45.14GB

[复制链接]
蓝光币
382
发表于 2019-6-26 19:17:28 | 显示全部楼层 |阅读模式


◎译  名 蝎子王 / 蝎子王传奇盗墓迷城外传 / 魔蝎大帝
◎片  名 The Scorpion King
◎年  代 2002
◎产  地 德国 / 美国 / 比利时
◎类  别 行动 / 惊悚 / 奇异 / 冒险
◎语  言 英语
◎上映日期 2002-04-19(美国)
◎IMDb评分  5.5/10 from 122889 users
◎IMDb链接  http://www.imdb.com/title/tt0277296
◎豆瓣评分 6.5/10 from 26046 users
◎豆瓣链接 https://movie.douban.com/subject/1306610/
◎片  长 92 分钟
◎导  演 查克·拉塞尔 Chuck Russell
◎编  剧 大卫·海特 David Hayter / 乔纳森·黑尔斯 Jonathan Hales
◎主  演 道恩·强森 Dwayne Johnson
      胡凯莉 Kelly Hu
      史蒂文·布兰德 Steven Brand
      迈克·克拉克·邓肯 Michael Clarke Duncan
      伯纳德·希尔 Bernard Hill

◎标  签 魔幻 | 美国 | 行动 | 奇异 | 蝎子王 | 美国电影 | 2002 | 科幻
◎简  介  
  在5000年前的古埃及,俄摩拉城因其城主曼侬(史蒂文·布兰德 Steven Brand 饰)手握重兵,而且统治很是残暴,使其称霸一方。为了抵挡他的统治,领地里的其他部落组成同盟向其策动了多场战争。可是成果都是大北而归。本来,在曼侬身旁有一位精通巫术 的奥秘人物,她能预知未来,碰见部落同盟的战术放置,由此帮助曼侬攻无不克。在知晓这一情况后,部落同盟决议派出一位刺客先把这个奥秘人物撤除。可是当刺客摩挲尤斯(道恩·强森 Dwayne Johnson 饰)深入城内预备暗杀阿谁奥秘人物时,却发现这是一位标致的女人(胡凯莉 Kelly Hu 饰),而且是由于遭到曼侬的威胁才被逼帮助曼侬。终极,他们的方针从这位奥秘人物身上转到了间接刺杀曼侬,一场生死大战就此展开……
  1. Video
  2. ID                                       : 1
  3. Format                                   : HEVC
  4. Format/Info                              : High Efficiency Video Coding
  5. Format profile                           : Main [email protected]@High
  6. Codec ID                                 : V_MPEGH/ISO/HEVC
  7. Duration                                 : 1 h 31 min
  8. Bit rate                                 : 61.7 Mb/s
  9. Width                                    : 3 840 pixels
  10. Height                                   : 1 634 pixels
  11. Display aspect ratio                     : 2.35:1
  12. Frame rate mode                          : Constant
  13. Frame rate                               : 23.976 (24000/1001) FPS
  14. Color space                              : YUV
  15. Chroma subsampling                       : 4:2:0
  16. Bit depth                                : 10 bits
  17. Bits/(Pixel*Frame)                       : 0.410
  18. Stream size                              : 39.4 GiB (88%)
  19. Title                                    : The.Scorpion.King.2002.2160p.BluRay.x265.10bit.SDR.DTS-X.7.1-SWTYBLZ
  20. Writing library                          : x265 3.0ed72af837053:[Windows][GCC 8.2.0][64 bit] 10bit
  21. Encoding settings                        : cpuid=1111039 / frame-threads=16 / numa-pools=44,44 / wpp / no-pmode / no-pme / no-psnr / no-ssim / log-level=2 / input-csp=1 / input-res=3840x1634 / interlace=0 / total-frames=131452 / level-idc=51 / high-tier=1 / uhd-bd=0 / ref=3 / no-allow-non-conformance / repeat-headers / annexb / aud / hrd / info / hash=0 / no-temporal-layers / no-open-gop / min-keyint=1 / keyint=24 / gop-lookahead=0 / bframes=4 / b-adapt=2 / b-pyramid / bframe-bias=0 / rc-lookahead=25 / lookahead-slices=4 / scenecut=40 / radl=0 / no-splice / no-intra-refresh / ctu=64 / min-cu-size=8 / no-rect / no-amp / max-tu-size=32 / tu-inter-depth=1 / tu-intra-depth=1 / limit-tu=0 / rdoq-level=0 / dynamic-rd=0.00 / no-ssim-rd / signhide / no-tskip / nr-intra=0 / nr-inter=0 / no-constrained-intra / strong-intra-smoothing / max-merge=2 / limit-refs=3 / no-limit-modes / me=1 / subme=2 / merange=57 / temporal-mvp / weightp / no-weightb / no-analyze-src-pics / deblock=0:0 / no-sao / no-sao-non-deblock / rd=3 / no-early-skip / rskip / no-fast-intra / no-tskip-fast / no-cu-lossless / no-b-intra / no-splitrd-skip / rdpenalty=0 / psy-rd=2.00 / psy-rdoq=0.00 / no-rd-refine / no-lossless / cbqpoffs=0 / crqpoffs=0 / rc=crf / crf=18.0 / qcomp=0.60 / qpstep=4 / stats-write=0 / stats-read=0 / vbv-maxrate=160000 / vbv-bufsize=160000 / vbv-init=0.9 / crf-max=0.0 / crf-min=0.0 / ipratio=1.40 / pbratio=1.30 / aq-mode=1 / aq-strength=1.00 / cutree / zone-count=0 / no-strict-cbr / qg-size=32 / no-rc-grain / qpmax=69 / qpmin=0 / no-const-vbv / sar=1 / overscan=0 / videoformat=5 / range=0 / colorprim=2 / transfer=2 / colormatrix=2 / chromaloc=0 / display-window=0 / max-cll=0,0 / min-luma=0 / max-luma=1023 / log2-max-poc-lsb=8 / vui-timing-info / vui-hrd-info / slices=1 / opt-qp-pps / opt-ref-list-length-pps / no-multi-pass-opt-rps / scenecut-bias=0.05 / no-opt-cu-delta-qp / no-aq-motion / no-hdr / no-hdr-opt / no-dhdr10-opt / no-idr-recovery-sei / analysis-reuse-level=5 / scale-factor=0 / refine-intra=0 / refine-inter=0 / refine-mv=0 / refine-ctu-distortion=0 / no-limit-sao / ctu-info=0 / no-lowpass-dct / refine-analysis-type=0 / copy-pic=1 / max-ausize-factor=1.0 / no-dynamic-refine / no-single-sei / no-hevc-aq / qp-adaptation-range=1.00
  22. Default                                  : Yes
  23. Forced                                   : No
  24. Audio #1
  25. ID                                       : 2
  26. Format                                   : DTS XLL X
  27. Format/Info                              : Digital Theater Systems
  28. Commercial name                          : DTS-HD Master Audio
  29. Codec ID                                 : A_DTS
  30. Duration                                 : 1 h 31 min
  31. Bit rate mode                            : Variable
  32. Bit rate                                 : 7 994 kb/s
  33. Channel(s)                               : 8 channels
  34. Channel(s)_Original                      : Object Based
  35. Channel layout                           : Object Based
  36. Sampling rate                            : 48.0 kHz
  37. Frame rate                               : 93.750 FPS (512 SPF)
  38. Bit depth                                : 24 bits
  39. Stream size                              : 5.10 GiB (11%)
  40. Title                                    : The.Scorpion.King.2002.2160p.BluRay.x265.10bit.SDR.DTS-X.7.1-SWTYBLZ
  41. Language                                 : English
  42. Default                                  : Yes
  43. Forced                                   : No
  44. Audio #2
  45. ID                                       : 3
  46. Format                                   : AC-3
  47. Format/Info                              : Audio Coding 3
  48. Commercial name                          : Dolby Digital
  49. Codec ID                                 : A_AC3
  50. Duration                                 : 1 h 31 min
  51. Bit rate mode                            : Constant
  52. Bit rate                                 : 640 kb/s
  53. Channel(s)                               : 6 channels
  54. Channel layout                           : L R C LFE Ls Rs
  55. Sampling rate                            : 48.0 kHz
  56. Frame rate                               : 31.250 FPS (1536 SPF)
  57. Bit depth                                : 16 bits
  58. Compression mode                         : Lossy
  59. Stream size                              : 418 MiB (1%)
  60. Title                                    : The.Scorpion.King.2002.2160p.BluRay.x265.10bit.SDR.DTS-X.7.1-SWTYBLZ
  61. Language                                 : English
  62. Service kind                             : Complete Main
  63. Default                                  : No
  64. Forced                                   : No
  65. Text #1
  66. ID                                       : 4
  67. Format                                   : UTF-8
  68. Codec ID                                 : S_TEXT/UTF8
  69. Codec ID/Info                            : UTF-8 Plain Text
  70. Duration                                 : 1 h 29 min
  71. Bit rate                                 : 31 b/s
  72. Count of elements                        : 624
  73. Stream size                              : 20.8 KiB (0%)
  74. Title                                    : English-SRT
  75. Language                                 : English
  76. Default                                  : Yes
  77. Forced                                   : No
  78. Text #2
  79. ID                                       : 5
  80. Format                                   : PGS
  81. Muxing mode                              : zlib
  82. Codec ID                                 : S_HDMV/PGS
  83. Codec ID/Info                            : Picture based subtitle format used on BDs/HD-DVDs
  84. Duration                                 : 1 h 29 min
  85. Bit rate                                 : 21.9 kb/s
  86. Count of elements                        : 1424
  87. Stream size                              : 14.0 MiB (0%)
  88. Title                                    : English-PGS
  89. Language                                 : English
  90. Default                                  : No
  91. Forced                                   : No
  92. Text #3
  93. ID                                       : 6
  94. Format                                   : PGS
  95. Muxing mode                              : zlib
  96. Codec ID                                 : S_HDMV/PGS
  97. Codec ID/Info                            : Picture based subtitle format used on BDs/HD-DVDs
  98. Duration                                 : 1 h 29 min
  99. Bit rate                                 : 21.2 kb/s
  100. Count of elements                        : 1262
  101. Stream size                              : 13.6 MiB (0%)
  102. Title                                    : German-PGS
  103. Language                                 : German
  104. Default                                  : No
  105. Forced                                   : No
  106. Text #4
  107. ID                                       : 7
  108. Format                                   : PGS
  109. Muxing mode                              : zlib
  110. Codec ID                                 : S_HDMV/PGS
  111. Codec ID/Info                            : Picture based subtitle format used on BDs/HD-DVDs
  112. Duration                                 : 1 h 29 min
  113. Bit rate                                 : 19.5 kb/s
  114. Count of elements                        : 1262
  115. Stream size                              : 12.5 MiB (0%)
  116. Title                                    : Italian-PGS
  117. Language                                 : Italian
  118. Default                                  : No
  119. Forced                                   : No
  120. Text #5
  121. ID                                       : 8
  122. Format                                   : PGS
  123. Muxing mode                              : zlib
  124. Codec ID                                 : S_HDMV/PGS
  125. Codec ID/Info                            : Picture based subtitle format used on BDs/HD-DVDs
  126. Duration                                 : 1 h 29 min
  127. Bit rate                                 : 20.4 kb/s
  128. Count of elements                        : 1262
  129. Stream size                              : 13.1 MiB (0%)
  130. Title                                    : Spanish-PGS
  131. Language                                 : Spanish
  132. Default                                  : No
  133. Forced                                   : No
  134. Text #6
  135. ID                                       : 9
  136. Format                                   : PGS
  137. Muxing mode                              : zlib
  138. Codec ID                                 : S_HDMV/PGS
  139. Codec ID/Info                            : Picture based subtitle format used on BDs/HD-DVDs
  140. Duration                                 : 1 h 29 min
  141. Bit rate                                 : 20.0 kb/s
  142. Count of elements                        : 1264
  143. Stream size                              : 12.8 MiB (0%)
  144. Title                                    : Portuguese-PGS
  145. Language                                 : Portuguese
  146. Default                                  : No
  147. Forced                                   : No
  148. Text #7
  149. ID                                       : 10
  150. Format                                   : PGS
  151. Muxing mode                              : zlib
  152. Codec ID                                 : S_HDMV/PGS
  153. Codec ID/Info                            : Picture based subtitle format used on BDs/HD-DVDs
  154. Duration                                 : 1 h 30 min
  155. Bit rate                                 : 18.0 kb/s
  156. Count of elements                        : 1156
  157. Stream size                              : 11.6 MiB (0%)
  158. Title                                    : Turkish-PGS
  159. Language                                 : Turkish
  160. Default                                  : No
  161. Forced                                   : No
  162. Menu
  163. 00:00:00.000                             : en:Chapter 01
  164. 00:03:46.976                             : en:Chapter 02
  165. 00:05:02.802                             : en:Chapter 03
  166. 00:08:31.844                             : en:Chapter 04
  167. 00:11:33.442                             : en:Chapter 05
  168. 00:15:58.540                             : en:Chapter 06
  169. 00:21:33.625                             : en:Chapter 07
  170. 00:27:38.907                             : en:Chapter 08
  171. 00:29:48.495                             : en:Chapter 09
  172. 00:32:51.928                             : en:Chapter 10
  173. 00:39:10.765                             : en:Chapter 11
  174. 00:45:15.003                             : en:Chapter 12
  175. 00:50:59.347                             : en:Chapter 13
  176. 00:56:10.784                             : en:Chapter 14
  177. 01:03:40.942                             : en:Chapter 15
  178. 01:06:49.588                             : en:Chapter 16
  179. 01:11:34.790                             : en:Chapter 17
  180. 01:19:40.108                             : en:Chapter 18
  181. 01:21:42.147                             : en:Chapter 19
  182. 01:24:41.159                             : en:Chapter 20
复制代码









                                       
                                       

                                       
                                       
                                       




回复

使用道具 举报

懒得打字嘛,点击右侧快捷回复 【右侧内容,后台自定义】
您需要登录后才可以回帖 登录 | 立即加入

本版积分规则

Archiver|小黑屋| 蓝光电影网 |网站地图

Copyright © 2021 Comsenz Inc. Powered by 蓝光电影网

蓝光电影网

本站内容由用户自主分享和转载自互联网,转载目的在于传递更多信息,并不代表本网赞同其观点和对其真实性负责。

如有侵权、违反国家法律政策行为,请联系我们,我们会第一时间及时清除和处理!

举报反馈邮箱:[email protected]

快速回复 返回顶部 返回列表