找回密码

蓝光电影网

查看: 9|回复: 0

[UHD.HEVC] 王者少年/将成为国王的孩子 The.Kid.Who.Would.Be.King.2019.2160p.BluRay.REMUX.HEVC.DTS-HD.MA.TrueHD.7.1.Atmos-FGT 49.42GB

[复制链接]
蓝光币
382
发表于 2019-5-22 19:37:00 | 显示全部楼层 |阅读模式




◎译  名 王者少年 / 将成为国王的孩子 / 权利剑神(港) / 魔剑少年(台)
◎片  名 The Kid Who Would Be King
◎年  代 2019
◎产  地 英国 / 美国
◎类  别 奇异 / 冒险
◎语  言 英语
◎上映日期 2019-01-25(美国)
◎IMDb评分  6.0/10 from 7340 users
◎IMDb链接  http://www.imdb.com/title/tt6811018
◎豆瓣评分 5.5/10 from 732 users
◎豆瓣链接 https://movie.douban.com/subject/27027799/
◎片  长 120分钟
◎导  演 乔·考尼什 Joe Cornish
◎编  剧 乔·考尼什 Joe Cornish
◎主  演 路易斯·阿什伯恩·瑟金斯 Louis Ashbourne Serkis
      丹妮斯·高夫 Denise Gough
      迪安·肖穆 Dean Chaumoo
      汤姆·泰勒 Tom Taylor
      雷亚安娜·杜瑞斯 Rhianna Dorris
      内森·斯图尔特-贾瑞特 Nathan Stewart-Jarrett
      诺玛·杜梅温尼 Noma Dumezweni
      丽贝卡·弗格森 Rebecca Ferguson
      马克·博纳尔 Mark Bonnar
      安格斯·里 Angus Imrie
      路易斯·马丁 Louis Martin
      乔伊·安沙 Joey Ansah
      亚当·利斯 Adam Leese
      亚历山德拉·罗奇 Alexandra Roach
      尼克·穆罕默德 Nick Mohammed
      帕特里克·斯图尔特 Patrick Stewart
      迈拉·麦克法迪 Myra McFadyen
      亚当·布克斯顿 Adam Buxton
      克劳迪·布莱克利 Claudie Blakley
      吉娜薇·欧瑞丽 Genevieve O'Reilly
      露丝·霍洛克斯 Ruth Horrocks
      贾格·帕特尔 Jag Patel
      康纳·沃尔夫 Connor Wolf

◎标  签 奇异 | 儿童 | 2019 | 英国 | 冒险 | 美国 | 魔法 | 科幻
◎简  介  
  剧情报告一群小朋友摸索追踪一其中世纪祸患——名叫Morgana、是亚瑟王同父(母)异母(父)的妹妹的故事。路易斯饰Alex,偶然发现了亚瑟王的圣剑“Excalibur”,泰勒饰他的同伴兰斯洛特,Denise Gough饰他的母亲,Imrie饰年轻版梅林,斯图尔特有望饰演老版梅林,弗格森则有望饰演大反派Morgana。该片由福斯刊行,布满行动冒险元素。
  1. Video
  2. ID                                       : 1
  3. Format                                   : HEVC
  4. Format/Info                              : High Efficiency Video Coding
  5. Commercial name                          : HDR10
  6. Format profile                           : Main [email protected]@High
  7. Codec ID                                 : V_MPEGH/ISO/HEVC
  8. Duration                                 : 2 h 0 min
  9. Bit rate                                 : 48.3 Mb/s
  10. Width                                    : 3 840 pixels
  11. Height                                   : 2 160 pixels
  12. Display aspect ratio                     : 16:9
  13. Frame rate mode                          : Constant
  14. Frame rate                               : 23.976 (24000/1001) FPS
  15. Color space                              : YUV
  16. Chroma subsampling                       : 4:2:0 (Type 2)
  17. Bit depth                                : 10 bits
  18. Bits/(Pixel*Frame)                       : 0.243
  19. Stream size                              : 40.5 GiB (82%)
  20. Title                                    : The.Kid.Who.Would.Be.King.2019.2160p.BluRay.REMUX.HEVC.DTS-HD.MA.TrueHD.7.1.Atmos-FGT
  21. Default                                  : Yes
  22. Forced                                   : No
  23. Color range                              : Limited
  24. Color primaries                          : BT.2020
  25. Transfer characteristics                 : PQ
  26. Matrix coefficients                      : BT.2020 non-constant
  27. Mastering display color primaries        : Display P3
  28. Mastering display luminance              : min: 0.0050 cd/m2, max: 1000 cd/m2
  29. Audio #1
  30. ID                                       : 2
  31. Format                                   : MLP FBA 16-ch
  32. Format/Info                              : Meridian Lossless Packing FBA with 16-channel presentation
  33. Commercial name                          : Dolby TrueHD with Dolby Atmos
  34. Codec ID                                 : A_TRUEHD
  35. Duration                                 : 2 h 0 min
  36. Bit rate mode                            : Variable
  37. Bit rate                                 : 4 449 kb/s
  38. Maximum bit rate                         : 8 607 kb/s
  39. Channel(s)                               : 8 channels
  40. Channel layout                           : L R C LFE Ls Rs Lb Rb
  41. Sampling rate                            : 48.0 kHz
  42. Frame rate                               : 1 200.000 FPS (40 SPF)
  43. Compression mode                         : Lossless
  44. Stream size                              : 3.73 GiB (8%)
  45. Title                                    : The.Kid.Who.Would.Be.King.2019.2160p.BluRay.REMUX.HEVC.DTS-HD.MA.TrueHD.7.1.Atmos-FGT
  46. Language                                 : English
  47. Default                                  : Yes
  48. Forced                                   : No
  49. Number of dynamic objects                : 13
  50. Bed channel count                        : 1 channel
  51. Bed channel configuration                : LFE
  52. Audio #2
  53. ID                                       : 3
  54. Format                                   : DTS XLL
  55. Format/Info                              : Digital Theater Systems
  56. Commercial name                          : DTS-HD Master Audio
  57. Codec ID                                 : A_DTS
  58. Duration                                 : 2 h 0 min
  59. Bit rate mode                            : Variable
  60. Bit rate                                 : 4 033 kb/s
  61. Channel(s)                               : 8 channels
  62. Channel layout                           : C L R LFE Lb Rb Lss Rss
  63. Sampling rate                            : 48.0 kHz
  64. Frame rate                               : 93.750 FPS (512 SPF)
  65. Bit depth                                : 24 bits
  66. Compression mode                         : Lossless
  67. Delay relative to video                  : -27 ms
  68. Stream size                              : 3.38 GiB (7%)
  69. Title                                    : The.Kid.Who.Would.Be.King.2019.2160p.BluRay.REMUX.HEVC.DTS-HD.MA.TrueHD.7.1.Atmos-FGT
  70. Language                                 : English
  71. Default                                  : No
  72. Forced                                   : No
  73. Audio #3
  74. ID                                       : 4
  75. Format                                   : AC-3
  76. Format/Info                              : Audio Coding 3
  77. Commercial name                          : Dolby Digital
  78. Codec ID                                 : A_AC3
  79. Duration                                 : 2 h 0 min
  80. Bit rate mode                            : Constant
  81. Bit rate                                 : 640 kb/s
  82. Channel(s)                               : 6 channels
  83. Channel layout                           : L R C LFE Ls Rs
  84. Sampling rate                            : 48.0 kHz
  85. Frame rate                               : 31.250 FPS (1536 SPF)
  86. Bit depth                                : 16 bits
  87. Compression mode                         : Lossy
  88. Stream size                              : 550 MiB (1%)
  89. Title                                    : The.Kid.Who.Would.Be.King.2019.2160p.BluRay.REMUX.HEVC.DTS-HD.MA.TrueHD.7.1.Atmos-FGT
  90. Language                                 : English
  91. Service kind                             : Complete Main
  92. Default                                  : No
  93. Forced                                   : No
  94. Audio #4
  95. ID                                       : 5
  96. Format                                   : AC-3
  97. Format/Info                              : Audio Coding 3
  98. Commercial name                          : Dolby Digital
  99. Codec ID                                 : A_AC3
  100. Duration                                 : 2 h 0 min
  101. Bit rate mode                            : Constant
  102. Bit rate                                 : 448 kb/s
  103. Channel(s)                               : 6 channels
  104. Channel layout                           : L R C LFE Ls Rs
  105. Sampling rate                            : 48.0 kHz
  106. Frame rate                               : 31.250 FPS (1536 SPF)
  107. Bit depth                                : 16 bits
  108. Compression mode                         : Lossy
  109. Delay relative to video                  : 5 ms
  110. Stream size                              : 385 MiB (1%)
  111. Title                                    : The.Kid.Who.Would.Be.King.2019.2160p.BluRay.REMUX.HEVC.DTS-HD.MA.TrueHD.7.1.Atmos-FGT
  112. Language                                 : English
  113. Service kind                             : Complete Main
  114. Default                                  : No
  115. Forced                                   : No
  116. Audio #5
  117. ID                                       : 6
  118. Format                                   : AC-3
  119. Format/Info                              : Audio Coding 3
  120. Commercial name                          : Dolby Digital
  121. Codec ID                                 : A_AC3
  122. Duration                                 : 2 h 0 min
  123. Bit rate mode                            : Constant
  124. Bit rate                                 : 448 kb/s
  125. Channel(s)                               : 6 channels
  126. Channel layout                           : L R C LFE Ls Rs
  127. Sampling rate                            : 48.0 kHz
  128. Frame rate                               : 31.250 FPS (1536 SPF)
  129. Bit depth                                : 16 bits
  130. Compression mode                         : Lossy
  131. Delay relative to video                  : 5 ms
  132. Stream size                              : 385 MiB (1%)
  133. Title                                    : The.Kid.Who.Would.Be.King.2019.2160p.BluRay.REMUX.HEVC.DTS-HD.MA.TrueHD.7.1.Atmos-FGT
  134. Language                                 : Spanish
  135. Service kind                             : Complete Main
  136. Default                                  : No
  137. Forced                                   : No
  138. Audio #6
  139. ID                                       : 7
  140. Format                                   : AC-3
  141. Format/Info                              : Audio Coding 3
  142. Commercial name                          : Dolby Digital
  143. Codec ID                                 : A_AC3
  144. Duration                                 : 2 h 0 min
  145. Bit rate mode                            : Constant
  146. Bit rate                                 : 448 kb/s
  147. Channel(s)                               : 6 channels
  148. Channel layout                           : L R C LFE Ls Rs
  149. Sampling rate                            : 48.0 kHz
  150. Frame rate                               : 31.250 FPS (1536 SPF)
  151. Bit depth                                : 16 bits
  152. Compression mode                         : Lossy
  153. Delay relative to video                  : 5 ms
  154. Stream size                              : 385 MiB (1%)
  155. Title                                    : The.Kid.Who.Would.Be.King.2019.2160p.BluRay.REMUX.HEVC.DTS-HD.MA.TrueHD.7.1.Atmos-FGT
  156. Language                                 : French
  157. Service kind                             : Complete Main
  158. Default                                  : No
  159. Forced                                   : No
  160. Text #1
  161. ID                                       : 8
  162. Format                                   : UTF-8
  163. Codec ID                                 : S_TEXT/UTF8
  164. Codec ID/Info                            : UTF-8 Plain Text
  165. Duration                                 : 1 h 59 min
  166. Bit rate                                 : 53 b/s
  167. Count of elements                        : 1633
  168. Stream size                              : 46.8 KiB (0%)
  169. Title                                    : English-SRT
  170. Language                                 : English
  171. Default                                  : Yes
  172. Forced                                   : No
  173. Text #2
  174. ID                                       : 9
  175. Format                                   : UTF-8
  176. Codec ID                                 : S_TEXT/UTF8
  177. Codec ID/Info                            : UTF-8 Plain Text
  178. Duration                                 : 1 h 59 min
  179. Bit rate                                 : 60 b/s
  180. Count of elements                        : 1995
  181. Stream size                              : 53.1 KiB (0%)
  182. Title                                    : English-SRT
  183. Language                                 : English
  184. Default                                  : No
  185. Forced                                   : No
  186. Text #3
  187. ID                                       : 10
  188. Format                                   : PGS
  189. Muxing mode                              : zlib
  190. Codec ID                                 : S_HDMV/PGS
  191. Codec ID/Info                            : Picture based subtitle format used on BDs/HD-DVDs
  192. Duration                                 : 1 h 59 min
  193. Bit rate                                 : 68.9 kb/s
  194. Count of elements                        : 4020
  195. Stream size                              : 58.8 MiB (0%)
  196. Title                                    : English-PGS
  197. Language                                 : English
  198. Default                                  : No
  199. Forced                                   : No
  200. Text #4
  201. ID                                       : 11
  202. Format                                   : PGS
  203. Muxing mode                              : zlib
  204. Codec ID                                 : S_HDMV/PGS
  205. Codec ID/Info                            : Picture based subtitle format used on BDs/HD-DVDs
  206. Duration                                 : 1 h 59 min
  207. Bit rate                                 : 55.7 kb/s
  208. Count of elements                        : 3186
  209. Stream size                              : 47.5 MiB (0%)
  210. Title                                    : Spanish-PGS
  211. Language                                 : Spanish
  212. Default                                  : No
  213. Forced                                   : No
  214. Text #5
  215. ID                                       : 12
  216. Format                                   : PGS
  217. Muxing mode                              : zlib
  218. Codec ID                                 : S_HDMV/PGS
  219. Codec ID/Info                            : Picture based subtitle format used on BDs/HD-DVDs
  220. Duration                                 : 1 h 59 min
  221. Bit rate                                 : 57.2 kb/s
  222. Count of elements                        : 3196
  223. Stream size                              : 48.9 MiB (0%)
  224. Title                                    : French-PGS
  225. Language                                 : French
  226. Default                                  : No
  227. Forced                                   : No
  228. Menu
  229. 00:00:00.000                             : :Chapter 1
  230. 00:06:30.014                             : :Chapter 2
  231. 00:11:41.200                             : :Chapter 3
  232. 00:15:52.868                             : :Chapter 4
  233. 00:20:21.762                             : :Chapter 5
  234. 00:27:00.410                             : :Chapter 6
  235. 00:34:03.958                             : :Chapter 7
  236. 00:40:08.239                             : :Chapter 8
  237. 00:43:21.181                             : :Chapter 9
  238. 00:47:42.734                             : :Chapter 10
  239. 00:55:36.291                             : :Chapter 11
  240. 00:59:38.324                             : :Chapter 12
  241. 01:06:51.215                             : :Chapter 13
  242. 01:11:45.551                             : :Chapter 14
  243. 01:17:40.614                             : :Chapter 15
  244. 01:21:47.903                             : :Chapter 16
  245. 01:25:25.537                             : :Chapter 17
  246. 01:27:57.772                             : :Chapter 18
  247. 01:31:37.033                             : :Chapter 19
  248. 01:33:56.881                             : :Chapter 20
  249. 01:38:30.779                             : :Chapter 21
  250. 01:44:10.994                             : :Chapter 22
  251. 01:50:55.357                             : :Chapter 23
  252. 01:53:32.847                             : :Chapter 24
复制代码






                                       
                                       

                                       
                                       
                                       




王者少年/将成为国王的孩子 The.Kid.Who.Would.Be.King.2019.2160p.BluRay.REMUX.HEVC.DTS-HD.MA.TrueHD.7.1.Atmos-FGT 49.42GB

The.Kid.Who.Would.Be.King.2019.2160p.BluRay.REMUX.HEVC.DTS-HD.MA.TrueHD.7.1.Atmo.torrent

124.15 KB, 下载次数: 0, 下载积分: 蓝光币 -2

回复

使用道具 举报

懒得打字嘛,点击右侧快捷回复 【右侧内容,后台自定义】
您需要登录后才可以回帖 登录 | 立即加入

本版积分规则

Archiver|小黑屋| 蓝光电影网 |网站地图

Copyright © 2021 Comsenz Inc. Powered by 蓝光电影网

蓝光电影网

本站内容由用户自主分享和转载自互联网,转载目的在于传递更多信息,并不代表本网赞同其观点和对其真实性负责。

如有侵权、违反国家法律政策行为,请联系我们,我们会第一时间及时清除和处理!

举报反馈邮箱:[email protected]

快速回复 返回顶部 返回列表