找回密码

蓝光电影网

查看: 9|回复: 0

[2160p] 大侦探皮卡丘 Pokemon.Detective.Pikachu.2019.INTERNAL.2160p.WEB.H265-DEFLATE 18.58GB

[复制链接]
蓝光币
382
发表于 2019-7-28 12:58:17 | 显示全部楼层 |阅读模式


◎译  名 大侦察皮卡丘 / Detective Pikachu / POKéMON 名侦察皮卡丘(台) / Pokemon / 名侦察皮卡丘 / 宠物小精灵 / 宠物小精灵之名侦察皮卡丘 / 宠物小精灵真人版 / 精灵宝可梦 / 精灵宝可梦之名侦察皮卡丘 / 精灵宝可梦:大侦察皮卡丘
◎片  名 Pokémon Detective Pikachu
◎年  代 2019
◎产  地 美国 / 日本
◎类  别 笑剧 / 动画 / 奇异 / 冒险
◎语  言 英语 / 日语
◎上映日期 2019-05-10(美国/中国大陆)
◎IMDb评分  7.0/10 from 22561 users
◎IMDb链接  http://www.imdb.com/title/tt5884052
◎豆瓣评分 6.7/10 from 100671 users
◎豆瓣链接 https://movie.douban.com/subject/26835471/
◎片  长 104分钟
◎导  演 罗伯·莱特曼 Rob Letterman
◎编  剧 尼科尔·帕尔曼 Nicole Perlman / 亚历克斯·赫什 Alex Hirsch / Satoshi Tajiri
◎主  演 瑞恩·雷诺兹 Ryan Reynolds
      贾斯蒂斯·史姑娘 Justice Smith
      凯瑟琳·纽顿 Kathryn Newton
      克里斯·吉尔 Chris Geere
      比尔·奈伊 Bill Nighy
      渡边谦 Ken Watanabe
      瑞塔·奥拉 Rita Ora
      苏琪·沃特豪斯 Suki Waterhouse
      卡兰·索尼 Karan Soni
      普莉安卡·伯福德 Priyanga Burford
      乔丹·朗 Jordan Long
      贝恩·科拉科 Bern Colla?o
      卡迪夫柯万 Kadiff Kirwan
      奥马尔·查帕罗 Omar Chaparro
      伯纳多·桑托斯 Bernardo Santos
      大谷育江 Ikue Ootani
      露丝·霍洛克斯 Ruth Horrocks
      丹尼尔·厄根 Daniel Eghan
      贾格·帕特尔 Jag Patel
      查利·蕾娅·埃斯奎尔 Charlie Rhea Esquér
      黛博拉·洛克 Deborah Rock
      所罗门·塔伊沃·贾斯提费尔德 Solomon Taiwo Justified
      尼克·欧文福特 Nick Owenford
      凯文·马塔迪恩 Kevin Matadeen
      Diplo

◎标  签 动画 | 美国 | 童年 | 2019 | 日本 | 笑剧 | 动漫 | 游戏改编
◎简  介  
  好莱坞真人电影《大侦察皮卡丘》(暂译)报告了蒂姆·古德曼(贾 斯 提·史姑娘饰) 为寻觅着落不明的父亲来到莱姆市,意外与父亲的前宝可梦同伴大侦察皮卡丘相遇,并惊奇地发现自己是唯一能听懂皮卡丘措辞的人类,他们决议组队踏上揭开真相的刺激冒险之路。探案进程中他们相逢了林林总总 的宝可梦,并意外发现了一个足以扑灭全部宝可梦宇宙的惊天诡计。该电影改编自任天堂3DS同名游戏,由罗伯·莱特曼导演,瑞安·雷诺兹为大侦察皮卡丘配音,贾斯提斯·史姑娘、凯瑟琳·纽顿等主演。
◎获奖情况  
  第5届豆瓣电影年度榜单(2018)
  最值得期待的外语电影(提名)

  1. Video
  2. ID                                       : 1
  3. Format                                   : HEVC
  4. Format/Info                              : High Efficiency Video Coding
  5. Format profile                           : Main [email protected]@High
  6. Codec ID                                 : V_MPEGH/ISO/HEVC
  7. Duration                                 : 1 h 44 min
  8. Bit rate                                 : 24.3 Mb/s
  9. Width                                    : 3 840 pixels
  10. Height                                   : 1 608 pixels
  11. Original height                          : 2 160 pixels
  12. Display aspect ratio                     : 16:9
  13. Frame rate mode                          : Constant
  14. Frame rate                               : 23.976 (24000/1001) FPS
  15. Color space                              : YUV
  16. Chroma subsampling                       : 4:2:0 (Type 2)
  17. Bit depth                                : 10 bits
  18. Bits/(Pixel*Frame)                       : 0.164
  19. Stream size                              : 17.7 GiB (96%)
  20. Language                                 : English
  21. Default                                  : Yes
  22. Forced                                   : No
  23. Color range                              : Limited
  24. Color primaries                          : BT.709
  25. Transfer characteristics                 : BT.709
  26. Matrix coefficients                      : BT.709
  27. Audio
  28. ID                                       : 2
  29. Format                                   : E-AC-3 JOC
  30. Format/Info                              : Enhanced AC-3 with Joint Object Coding
  31. Commercial name                          : Dolby Digital Plus with Dolby Atmos
  32. Codec ID                                 : A_EAC3
  33. Duration                                 : 1 h 44 min
  34. Bit rate mode                            : Constant
  35. Bit rate                                 : 448 kb/s
  36. Channel(s)                               : 6 channels
  37. Channel layout                           : L R C LFE Ls Rs
  38. Sampling rate                            : 48.0 kHz
  39. Frame rate                               : 31.250 FPS (1536 SPF)
  40. Compression mode                         : Lossy
  41. Delay relative to video                  : 83 ms
  42. Stream size                              : 335 MiB (2%)
  43. Language                                 : English
  44. Service kind                             : Complete Main
  45. Default                                  : Yes
  46. Forced                                   : No
  47. Complexity index                         : 16
  48. Number of dynamic objects                : 15
  49. Bed channel count                        : 1 channel
  50. Bed channel configuration                : LFE
  51. Text #1
  52. ID                                       : 3
  53. Format                                   : UTF-8
  54. Codec ID                                 : S_TEXT/UTF8
  55. Codec ID/Info                            : UTF-8 Plain Text
  56. Title                                    : English
  57. Language                                 : English
  58. Default                                  : No
  59. Forced                                   : No
  60. Text #2
  61. ID                                       : 4
  62. Format                                   : UTF-8
  63. Codec ID                                 : S_TEXT/UTF8
  64. Codec ID/Info                            : UTF-8 Plain Text
  65. Title                                    : English (SDH)
  66. Language                                 : English
  67. Default                                  : No
  68. Forced                                   : No
  69. Text #3
  70. ID                                       : 5
  71. Format                                   : UTF-8
  72. Codec ID                                 : S_TEXT/UTF8
  73. Codec ID/Info                            : UTF-8 Plain Text
  74. Title                                    : Spanish
  75. Language                                 : Spanish
  76. Default                                  : No
  77. Forced                                   : No
  78. Menu
  79. 00:00:00.000                             : en:Chapter 1
  80. 00:06:54.000                             : en:Chapter 2
  81. 00:15:34.000                             : en:Chapter 3
  82. 00:24:04.000                             : en:Chapter 4
  83. 00:30:58.000                             : en:Chapter 5
  84. 00:40:43.000                             : en:Chapter 6
  85. 00:49:55.000                             : en:Chapter 7
  86. 00:59:47.000                             : en:Chapter 8
  87. 01:09:20.000                             : en:Chapter 9
  88. 01:16:57.000                             : en:Chapter 10
  89. 01:23:19.000                             : en:Chapter 11
  90. 01:30:53.000                             : en:Chapter 12
  91. 01:35:46.000                             : en:Chapter 13
复制代码






                                       
                                       

                                       
                                       
                                       




回复

使用道具 举报

懒得打字嘛,点击右侧快捷回复 【右侧内容,后台自定义】
您需要登录后才可以回帖 登录 | 立即加入

本版积分规则

Archiver|小黑屋| 蓝光电影网 |网站地图

Copyright © 2021 Comsenz Inc. Powered by 蓝光电影网

蓝光电影网

本站内容由用户自主分享和转载自互联网,转载目的在于传递更多信息,并不代表本网赞同其观点和对其真实性负责。

如有侵权、违反国家法律政策行为,请联系我们,我们会第一时间及时清除和处理!

举报反馈邮箱:[email protected]

快速回复 返回顶部 返回列表