找回密码

蓝光电影网

查看: 13|回复: 0

[2160p] 大门/多尔乐队 The.Doors.1991.2160p.BluRay.x264.8bit.SDR.DTS-HD.MA.TrueHD.7.1.Atmos-SWTYBLZ 48.64GB

[复制链接]
蓝光币
386
发表于 2019-7-28 12:52:50 | 显示全部楼层 |阅读模式


◎译  名 大门 / 多尔乐队 / 大门乐队 / 火乐焚城 / 门
◎片  名 The Doors
◎年  代 1991
◎产  地 美国
◎类  别 剧情 / 音乐 / 列传
◎语  言 英语
◎上映日期 1991-02-23
◎IMDb评分  7.2/10 from 78143 users
◎IMDb链接  http://www.imdb.com/title/tt0101761
◎豆瓣评分 8.0/10 from 7292 users
◎豆瓣链接 https://movie.douban.com/subject/1291846/
◎片  长 140 分钟
◎导  演 奥利佛·斯通 Oliver Stone
◎编  剧 兰道尔·约翰逊 Randall Jahnson / 奥利佛·斯通 Oliver Stone
◎主  演 方·基默 Val Kilmer
      梅格·瑞恩 Meg Ryan
      凯尔·麦克拉克伦 Kyle MacLachlan
      弗兰克·威利 Frank Whaley
      凯文·狄龙 Kevin Dillon
      迈克尔·维克特 Michael Wincott
      迈克尔·马德森 Michael Madsen
      乔希·埃文斯 Josh Evans
      丹尼斯·伯克利 Dennis Burkley
      Billy Idol
      凯瑟琳·奎南 Kathleen Quinlan
      约翰·登斯默 John Densmore
      西恩·斯通 Sean Stone
      弗洛伊德·怀斯特曼 Floyd 'Red Crow' Westerman
      韦斯·斯塔迪 Wes Studi
      史蒂夫·里维斯 Steve Reevis
      伯纳德·特尔西 Bernard Telsey
      安德鲁·劳厄尔 Andrew Lauer
      胡凯莉 Kelly Hu
      朱茜·角逐特 Josie Bissett
      Fiona
      Robert LuPone
      Paul A. Rothchild
      约翰·卡波迪斯 John Capodice
      Eric Burdon
      黛比·玛扎 Debi Mazar
      马克·摩斯 Mark Moses
      弗兰克·米利塔里 Frank Military
      黛伯拉·法奥康纳 Deborah Falconer
      Will Jordan
      Sam Whipple
      查利·斯普拉德林 Charlie Spradling
      丽莎·艾德尔斯汀 Lisa Edelstein
      埃里克·德拉姆斯 Erik Dellums
      米密·罗杰斯 Mimi Rogers
      詹妮弗·鲁宾 Jennifer Rubin
      保罗·威廉姆斯 Paul Williams
      科斯塔斯·曼迪勒 Costas Mandylor
      Christina Fulton
      克里斯平·格洛弗 Crispin Glover
      Claire Stansfield
      卡琳娜·隆巴德 Karina Lombard
      克里斯多福·劳福德 Christopher Lawford
      劳拉·伊斯特曼 Laura Esterman
      比尔·格雷厄姆 Bill Graham
      提图斯·维里沃 Titus Welliver
      Eagle Eye Cherry
      Danny Sullivan
      Bonnie Bramlett
      罗德尼·格兰特 Rodney A. Grant
      Patricia Kennealy
      基思·雷丁 Keith Reddin
      Billy Vera
      阿兰·格拉夫 Allan Graf
      杰克·麦吉 Jack McGee
      Alan Manson
      威廉姆·库斯特勒 William Kunstler
      Jad Mager
      Richard Rutowski
      Arthur Bremer
      M.C. Brennan

◎标  签 列传 | 摇滚 | 美国 | Doors | 音乐 | OliverStone | 奥利弗·斯通 | 美国电影
◎简  介  
  本片忠厚地记叙了1960年月美国迷幻摇滚代表乐队——大门乐队的灵魂主唱吉姆·莫里森(方·基默 Val Kilmer饰)从成名到自我扑灭的平生。
在电影黉舍,莫里森结识了喜好弹钢琴的键盘手雷·曼札克,两人一拍即合,决议组建一支令天下震动的摇滚乐队:The Doors。很快,莫里森在这里找到了其他两位乐队成员:鼓手约翰·丹斯莫和吉他手罗比·克雷格。未几,大门乐队因《Light My Fire》一跃成名,万千乐迷为之疯狂。在具有金钱名利诸多光环后的莫里森,却始终没法被任何人真正领会,有人以为他是墨客、艺术家,也有人把他当做疯子、瘾君子。27岁的莫里森终极挑选了灭亡来竣事这段无以伦比的小我传奇。
◎获奖情况  
  第82届奥斯卡金像奖(2010)
  最好真人短片(提名) 詹姆斯·弗林

  1. Video
  2. ID                                       : 1
  3. Format                                   : AVC
  4. Format/Info                              : Advanced Video Codec
  5. Format profile                           : [email protected]
  6. Format settings                          : CABAC / 5 Ref Frames
  7. Format settings, CABAC                   : Yes
  8. Format settings, Reference frames        : 5 frames
  9. Codec ID                                 : V_MPEG4/ISO/AVC
  10. Duration                                 : 2 h 20 min
  11. Bit rate                                 : 40.4 Mb/s
  12. Width                                    : 3 840 pixels
  13. Height                                   : 1 634 pixels
  14. Display aspect ratio                     : 2.35:1
  15. Frame rate mode                          : Constant
  16. Frame rate                               : 24.000 FPS
  17. Color space                              : YUV
  18. Chroma subsampling                       : 4:2:0
  19. Bit depth                                : 8 bits
  20. Scan type                                : Progressive
  21. Bits/(Pixel*Frame)                       : 0.268
  22. Stream size                              : 39.7 GiB (82%)
  23. Title                                    : The.Doors.1991.2160p.BluRay.x264.8bit.SDR.DTS-HD.MA.TrueHD.7.1.Atmos-SWTYBLZ
  24. Writing library                          : x264 core 157 r2935 545de2f
  25. Encoding settings                        : cabac=1 / ref=5 / deblock=1:-1:-1 / analyse=0x3:0x113 / me=umh / subme=10 / psy=1 / psy_rd=1.00:0.15 / mixed_ref=1 / me_range=48 / chroma_me=1 / trellis=2 / 8x8dct=1 / cqm=0 / deadzone=21,11 / fast_pskip=1 / chroma_qp_offset=-3 / threads=48 / lookahead_threads=4 / sliced_threads=0 / nr=0 / decimate=0 / interlaced=0 / bluray_compat=0 / constrained_intra=0 / bframes=3 / b_pyramid=2 / b_adapt=2 / b_bias=0 / direct=3 / weightb=1 / open_gop=0 / weightp=2 / keyint=250 / keyint_min=24 / scenecut=40 / intra_refresh=0 / rc_lookahead=50 / rc=crf / mbtree=1 / crf=22.0 / qcomp=0.60 / qpmin=0 / qpmax=69 / qpstep=4 / ip_ratio=1.40 / aq=1:1.00
  26. Default                                  : Yes
  27. Forced                                   : No
  28. Audio #1
  29. ID                                       : 2
  30. Format                                   : MLP FBA 16-ch
  31. Format/Info                              : Meridian Lossless Packing FBA with 16-channel presentation
  32. Commercial name                          : Dolby TrueHD with Dolby Atmos
  33. Codec ID                                 : A_TRUEHD
  34. Duration                                 : 2 h 20 min
  35. Bit rate mode                            : Variable
  36. Bit rate                                 : 3 444 kb/s
  37. Maximum bit rate                         : 5 028 kb/s
  38. Channel(s)                               : 8 channels
  39. Channel layout                           : L R C LFE Ls Rs Lb Rb
  40. Sampling rate                            : 48.0 kHz
  41. Frame rate                               : 1 200.000 FPS (40 SPF)
  42. Compression mode                         : Lossless
  43. Delay relative to video                  : 3 s 42 ms
  44. Stream size                              : 3.38 GiB (7%)
  45. Title                                    : The.Doors.1991.2160p.BluRay.x264.8bit.SDR.DTS-HD.MA.TrueHD.7.1.Atmos-SWTYBLZ
  46. Language                                 : English
  47. Default                                  : Yes
  48. Forced                                   : No
  49. Number of dynamic objects                : 11
  50. Bed channel count                        : 1 channel
  51. Bed channel configuration                : LFE
  52. Audio #2
  53. ID                                       : 3
  54. Format                                   : DTS XLL
  55. Format/Info                              : Digital Theater Systems
  56. Commercial name                          : DTS-HD Master Audio
  57. Codec ID                                 : A_DTS
  58. Duration                                 : 2 h 20 min
  59. Bit rate mode                            : Variable
  60. Bit rate                                 : 4 765 kb/s
  61. Channel(s)                               : 8 channels
  62. Channel layout                           : C L R LFE Lb Rb Lss Rss
  63. Sampling rate                            : 48.0 kHz
  64. Frame rate                               : 93.750 FPS (512 SPF)
  65. Bit depth                                : 24 bits
  66. Compression mode                         : Lossless
  67. Stream size                              : 4.68 GiB (10%)
  68. Title                                    : The.Doors.1991.2160p.BluRay.x264.8bit.SDR.DTS-HD.MA.TrueHD.7.1.Atmos-SWTYBLZ
  69. Language                                 : English
  70. Default                                  : No
  71. Forced                                   : No
  72. Audio #3
  73. ID                                       : 4
  74. Format                                   : AC-3
  75. Format/Info                              : Audio Coding 3
  76. Commercial name                          : Dolby Digital
  77. Codec ID                                 : A_AC3
  78. Duration                                 : 2 h 20 min
  79. Bit rate mode                            : Constant
  80. Bit rate                                 : 640 kb/s
  81. Channel(s)                               : 6 channels
  82. Channel layout                           : L R C LFE Ls Rs
  83. Sampling rate                            : 48.0 kHz
  84. Frame rate                               : 31.250 FPS (1536 SPF)
  85. Bit depth                                : 16 bits
  86. Compression mode                         : Lossy
  87. Delay relative to video                  : 3 s 42 ms
  88. Stream size                              : 643 MiB (1%)
  89. Title                                    : The.Doors.1991.2160p.BluRay.x264.8bit.SDR.DTS-HD.MA.TrueHD.7.1.Atmos-SWTYBLZ
  90. Language                                 : English
  91. Service kind                             : Complete Main
  92. Default                                  : No
  93. Forced                                   : No
  94. Text #1
  95. ID                                       : 5
  96. Format                                   : UTF-8
  97. Codec ID                                 : S_TEXT/UTF8
  98. Codec ID/Info                            : UTF-8 Plain Text
  99. Duration                                 : 2 h 13 min
  100. Bit rate                                 : 65 b/s
  101. Count of elements                        : 1820
  102. Stream size                              : 64.0 KiB (0%)
  103. Title                                    : English-SRT
  104. Language                                 : English
  105. Default                                  : Yes
  106. Forced                                   : No
  107. Text #2
  108. ID                                       : 6
  109. Format                                   : UTF-8
  110. Codec ID                                 : S_TEXT/UTF8
  111. Codec ID/Info                            : UTF-8 Plain Text
  112. Duration                                 : 2 h 14 min
  113. Bit rate                                 : 70 b/s
  114. Count of elements                        : 1987
  115. Stream size                              : 69.3 KiB (0%)
  116. Title                                    : English-SDH-SRT
  117. Language                                 : English
  118. Default                                  : No
  119. Forced                                   : No
  120. Text #3
  121. ID                                       : 7
  122. Format                                   : PGS
  123. Muxing mode                              : zlib
  124. Codec ID                                 : S_HDMV/PGS
  125. Codec ID/Info                            : Picture based subtitle format used on BDs/HD-DVDs
  126. Duration                                 : 2 h 14 min
  127. Bit rate                                 : 42.5 kb/s
  128. Count of elements                        : 3979
  129. Stream size                              : 40.9 MiB (0%)
  130. Title                                    : English-PGS
  131. Language                                 : English
  132. Default                                  : No
  133. Forced                                   : No
  134. Text #4
  135. ID                                       : 8
  136. Format                                   : PGS
  137. Muxing mode                              : zlib
  138. Codec ID                                 : S_HDMV/PGS
  139. Codec ID/Info                            : Picture based subtitle format used on BDs/HD-DVDs
  140. Duration                                 : 2 h 19 min
  141. Bit rate                                 : 23.8 kb/s
  142. Count of elements                        : 2704
  143. Stream size                              : 23.8 MiB (0%)
  144. Title                                    : French-PGS
  145. Language                                 : French
  146. Default                                  : No
  147. Forced                                   : No
  148. Text #5
  149. ID                                       : 9
  150. Format                                   : PGS
  151. Muxing mode                              : zlib
  152. Codec ID                                 : S_HDMV/PGS
  153. Codec ID/Info                            : Picture based subtitle format used on BDs/HD-DVDs
  154. Duration                                 : 2 h 14 min
  155. Bit rate                                 : 29.6 kb/s
  156. Count of elements                        : 2424
  157. Stream size                              : 28.4 MiB (0%)
  158. Title                                    : German-PGS
  159. Language                                 : German
  160. Default                                  : No
  161. Forced                                   : No
  162. Menu
  163. 00:00:00.000                             : en:Chapter 01
  164. 00:14:50.291                             : en:Chapter 02
  165. 00:22:26.250                             : en:Chapter 03
  166. 00:41:02.958                             : en:Chapter 04
  167. 00:50:09.958                             : en:Chapter 05
  168. 01:09:07.875                             : en:Chapter 06
  169. 01:19:59.125                             : en:Chapter 07
  170. 01:29:20.250                             : en:Chapter 08
  171. 01:36:38.333                             : en:Chapter 09
  172. 01:47:33.416                             : en:Chapter 10
  173. 01:57:45.416                             : en:Chapter 11
  174. 02:12:07.208                             : en:Chapter 12
复制代码










                                       
                                       

                                       
                                       
                                       




回复

使用道具 举报

懒得打字嘛,点击右侧快捷回复 【右侧内容,后台自定义】
您需要登录后才可以回帖 登录 | 立即加入

本版积分规则

Archiver|小黑屋| 蓝光电影网 |网站地图

Copyright © 2021 Comsenz Inc. Powered by 蓝光电影网

蓝光电影网

本站内容由用户自主分享和转载自互联网,转载目的在于传递更多信息,并不代表本网赞同其观点和对其真实性负责。

如有侵权、违反国家法律政策行为,请联系我们,我们会第一时间及时清除和处理!

举报反馈邮箱:[email protected]

快速回复 返回顶部 返回列表