找回密码

蓝光电影网

查看: 7|回复: 0

[2160p] 大门/多尔乐队 The.Doors.1991.2160p.BluRay.x265.10bit.SDR.DTS-HD.MA.TrueHD.7.1.Atmos-SWTYBLZ 47.85GB

[复制链接]
蓝光币
382
发表于 2019-7-28 12:50:43 | 显示全部楼层 |阅读模式


◎译  名 大门 / 多尔乐队 / 大门乐队 / 火乐焚城 / 门
◎片  名 The Doors
◎年  代 1991
◎产  地 美国
◎类  别 剧情 / 音乐 / 列传
◎语  言 英语
◎上映日期 1991-02-23
◎IMDb评分  7.2/10 from 78143 users
◎IMDb链接  http://www.imdb.com/title/tt0101761
◎豆瓣评分 8.0/10 from 7292 users
◎豆瓣链接 https://movie.douban.com/subject/1291846/
◎片  长 140 分钟
◎导  演 奥利佛·斯通 Oliver Stone
◎编  剧 兰道尔·约翰逊 Randall Jahnson / 奥利佛·斯通 Oliver Stone
◎主  演 方·基默 Val Kilmer
      梅格·瑞恩 Meg Ryan
      凯尔·麦克拉克伦 Kyle MacLachlan
      弗兰克·威利 Frank Whaley
      凯文·狄龙 Kevin Dillon
      迈克尔·维克特 Michael Wincott
      迈克尔·马德森 Michael Madsen
      乔希·埃文斯 Josh Evans
      丹尼斯·伯克利 Dennis Burkley
      Billy Idol
      凯瑟琳·奎南 Kathleen Quinlan
      约翰·登斯默 John Densmore
      西恩·斯通 Sean Stone
      弗洛伊德·怀斯特曼 Floyd 'Red Crow' Westerman
      韦斯·斯塔迪 Wes Studi
      史蒂夫·里维斯 Steve Reevis
      伯纳德·特尔西 Bernard Telsey
      安德鲁·劳厄尔 Andrew Lauer
      胡凯莉 Kelly Hu
      朱茜·角逐特 Josie Bissett
      Fiona
      Robert LuPone
      Paul A. Rothchild
      约翰·卡波迪斯 John Capodice
      Eric Burdon
      黛比·玛扎 Debi Mazar
      马克·摩斯 Mark Moses
      弗兰克·米利塔里 Frank Military
      黛伯拉·法奥康纳 Deborah Falconer
      Will Jordan
      Sam Whipple
      查利·斯普拉德林 Charlie Spradling
      丽莎·艾德尔斯汀 Lisa Edelstein
      埃里克·德拉姆斯 Erik Dellums
      米密·罗杰斯 Mimi Rogers
      詹妮弗·鲁宾 Jennifer Rubin
      保罗·威廉姆斯 Paul Williams
      科斯塔斯·曼迪勒 Costas Mandylor
      Christina Fulton
      克里斯平·格洛弗 Crispin Glover
      Claire Stansfield
      卡琳娜·隆巴德 Karina Lombard
      克里斯多福·劳福德 Christopher Lawford
      劳拉·伊斯特曼 Laura Esterman
      比尔·格雷厄姆 Bill Graham
      提图斯·维里沃 Titus Welliver
      Eagle Eye Cherry
      Danny Sullivan
      Bonnie Bramlett
      罗德尼·格兰特 Rodney A. Grant
      Patricia Kennealy
      基思·雷丁 Keith Reddin
      Billy Vera
      阿兰·格拉夫 Allan Graf
      杰克·麦吉 Jack McGee
      Alan Manson
      威廉姆·库斯特勒 William Kunstler
      Jad Mager
      Richard Rutowski
      Arthur Bremer
      M.C. Brennan

◎标  签 列传 | 摇滚 | 美国 | Doors | 音乐 | OliverStone | 奥利弗·斯通 | 美国电影
◎简  介  
  本片忠厚地记叙了1960年月美国迷幻摇滚代表乐队——大门乐队的灵魂主唱吉姆·莫里森(方·基默 Val Kilmer饰)从成名到自我扑灭的平生。
在电影黉舍,莫里森结识了喜好弹钢琴的键盘手雷·曼札克,两人一拍即合,决议组建一支令天下震动的摇滚乐队:The Doors。很快,莫里森在这里找到了其他两位乐队成员:鼓手约翰·丹斯莫和吉他手罗比·克雷格。未几,大门乐队因《Light My Fire》一跃成名,万千乐迷为之疯狂。在具有金钱名利诸多光环后的莫里森,却始终没法被任何人真正领会,有人以为他是墨客、艺术家,也有人把他当做疯子、瘾君子。27岁的莫里森终极挑选了灭亡来竣事这段无以伦比的小我传奇。
◎获奖情况  
  第82届奥斯卡金像奖(2010)
  最好真人短片(提名) 詹姆斯·弗林

  1. Video
  2. ID                                       : 1
  3. Format                                   : HEVC
  4. Format/Info                              : High Efficiency Video Coding
  5. Format profile                           : Main [email protected]@High
  6. Codec ID                                 : V_MPEGH/ISO/HEVC
  7. Duration                                 : 2 h 20 min
  8. Bit rate                                 : 39.5 Mb/s
  9. Width                                    : 3 840 pixels
  10. Height                                   : 1 634 pixels
  11. Display aspect ratio                     : 2.35:1
  12. Frame rate mode                          : Constant
  13. Frame rate                               : 24.000 FPS
  14. Color space                              : YUV
  15. Chroma subsampling                       : 4:2:0
  16. Bit depth                                : 10 bits
  17. Bits/(Pixel*Frame)                       : 0.263
  18. Stream size                              : 38.8 GiB (82%)
  19. Title                                    : The.Doors.1991.2160p.BluRay.x265.10bit.SDR.DTS-HD.MA.TrueHD.7.1.Atmos-SWTYBLZ
  20. Writing library                          : x265 3.0ed72af837053:[Windows][GCC 8.2.0][64 bit] 10bit
  21. Encoding settings                        : cpuid=1111039 / frame-threads=16 / numa-pools=44,44 / wpp / no-pmode / no-pme / no-psnr / no-ssim / log-level=2 / input-csp=1 / input-res=3840x1634 / interlace=0 / total-frames=202310 / level-idc=51 / high-tier=1 / uhd-bd=0 / ref=3 / no-allow-non-conformance / repeat-headers / annexb / aud / hrd / info / hash=0 / no-temporal-layers / no-open-gop / min-keyint=1 / keyint=24 / gop-lookahead=0 / bframes=4 / b-adapt=2 / b-pyramid / bframe-bias=0 / rc-lookahead=25 / lookahead-slices=4 / scenecut=40 / radl=0 / no-splice / no-intra-refresh / ctu=64 / min-cu-size=8 / no-rect / no-amp / max-tu-size=32 / tu-inter-depth=1 / tu-intra-depth=1 / limit-tu=0 / rdoq-level=0 / dynamic-rd=0.00 / no-ssim-rd / signhide / no-tskip / nr-intra=0 / nr-inter=0 / no-constrained-intra / strong-intra-smoothing / max-merge=2 / limit-refs=3 / no-limit-modes / me=1 / subme=2 / merange=57 / temporal-mvp / weightp / no-weightb / no-analyze-src-pics / deblock=0:0 / no-sao / no-sao-non-deblock / rd=3 / no-early-skip / rskip / no-fast-intra / no-tskip-fast / no-cu-lossless / no-b-intra / no-splitrd-skip / rdpenalty=0 / psy-rd=2.00 / psy-rdoq=0.00 / no-rd-refine / no-lossless / cbqpoffs=0 / crqpoffs=0 / rc=crf / crf=20.0 / qcomp=0.60 / qpstep=4 / stats-write=0 / stats-read=0 / vbv-maxrate=160000 / vbv-bufsize=160000 / vbv-init=0.9 / crf-max=0.0 / crf-min=0.0 / ipratio=1.40 / pbratio=1.30 / aq-mode=1 / aq-strength=1.00 / cutree / zone-count=0 / no-strict-cbr / qg-size=32 / no-rc-grain / qpmax=69 / qpmin=0 / no-const-vbv / sar=1 / overscan=0 / videoformat=5 / range=0 / colorprim=2 / transfer=2 / colormatrix=2 / chromaloc=0 / display-window=0 / max-cll=0,0 / min-luma=0 / max-luma=1023 / log2-max-poc-lsb=8 / vui-timing-info / vui-hrd-info / slices=1 / opt-qp-pps / opt-ref-list-length-pps / no-multi-pass-opt-rps / scenecut-bias=0.05 / no-opt-cu-delta-qp / no-aq-motion / no-hdr / no-hdr-opt / no-dhdr10-opt / no-idr-recovery-sei / analysis-reuse-level=5 / scale-factor=0 / refine-intra=0 / refine-inter=0 / refine-mv=0 / refine-ctu-distortion=0 / no-limit-sao / ctu-info=0 / no-lowpass-dct / refine-analysis-type=0 / copy-pic=1 / max-ausize-factor=1.0 / no-dynamic-refine / no-single-sei / no-hevc-aq / qp-adaptation-range=1.00
  22. Default                                  : Yes
  23. Forced                                   : No
  24. Audio #1
  25. ID                                       : 2
  26. Format                                   : MLP FBA 16-ch
  27. Format/Info                              : Meridian Lossless Packing FBA with 16-channel presentation
  28. Commercial name                          : Dolby TrueHD with Dolby Atmos
  29. Codec ID                                 : A_TRUEHD
  30. Duration                                 : 2 h 20 min
  31. Bit rate mode                            : Variable
  32. Bit rate                                 : 3 444 kb/s
  33. Maximum bit rate                         : 5 028 kb/s
  34. Channel(s)                               : 8 channels
  35. Channel layout                           : L R C LFE Ls Rs Lb Rb
  36. Sampling rate                            : 48.0 kHz
  37. Frame rate                               : 1 200.000 FPS (40 SPF)
  38. Compression mode                         : Lossless
  39. Delay relative to video                  : 3 s 42 ms
  40. Stream size                              : 3.38 GiB (7%)
  41. Title                                    : The.Doors.1991.2160p.BluRay.x265.10bit.SDR.DTS-HD.MA.TrueHD.7.1.Atmos-SWTYBLZ
  42. Language                                 : English
  43. Default                                  : Yes
  44. Forced                                   : No
  45. Number of dynamic objects                : 11
  46. Bed channel count                        : 1 channel
  47. Bed channel configuration                : LFE
  48. Audio #2
  49. ID                                       : 3
  50. Format                                   : DTS XLL
  51. Format/Info                              : Digital Theater Systems
  52. Commercial name                          : DTS-HD Master Audio
  53. Codec ID                                 : A_DTS
  54. Duration                                 : 2 h 20 min
  55. Bit rate mode                            : Variable
  56. Bit rate                                 : 4 765 kb/s
  57. Channel(s)                               : 8 channels
  58. Channel layout                           : C L R LFE Lb Rb Lss Rss
  59. Sampling rate                            : 48.0 kHz
  60. Frame rate                               : 93.750 FPS (512 SPF)
  61. Bit depth                                : 24 bits
  62. Compression mode                         : Lossless
  63. Stream size                              : 4.68 GiB (10%)
  64. Title                                    : The.Doors.1991.2160p.BluRay.x265.10bit.SDR.DTS-HD.MA.TrueHD.7.1.Atmos-SWTYBLZ
  65. Language                                 : English
  66. Default                                  : No
  67. Forced                                   : No
  68. Audio #3
  69. ID                                       : 4
  70. Format                                   : AC-3
  71. Format/Info                              : Audio Coding 3
  72. Commercial name                          : Dolby Digital
  73. Codec ID                                 : A_AC3
  74. Duration                                 : 2 h 20 min
  75. Bit rate mode                            : Constant
  76. Bit rate                                 : 640 kb/s
  77. Channel(s)                               : 6 channels
  78. Channel layout                           : L R C LFE Ls Rs
  79. Sampling rate                            : 48.0 kHz
  80. Frame rate                               : 31.250 FPS (1536 SPF)
  81. Bit depth                                : 16 bits
  82. Compression mode                         : Lossy
  83. Delay relative to video                  : 3 s 42 ms
  84. Stream size                              : 643 MiB (1%)
  85. Title                                    : The.Doors.1991.2160p.BluRay.x265.10bit.SDR.DTS-HD.MA.TrueHD.7.1.Atmos-SWTYBLZ
  86. Language                                 : English
  87. Service kind                             : Complete Main
  88. Default                                  : No
  89. Forced                                   : No
  90. Text #1
  91. ID                                       : 5
  92. Format                                   : UTF-8
  93. Codec ID                                 : S_TEXT/UTF8
  94. Codec ID/Info                            : UTF-8 Plain Text
  95. Duration                                 : 2 h 13 min
  96. Bit rate                                 : 65 b/s
  97. Count of elements                        : 1820
  98. Stream size                              : 64.0 KiB (0%)
  99. Title                                    : English-SRT
  100. Language                                 : English
  101. Default                                  : Yes
  102. Forced                                   : No
  103. Text #2
  104. ID                                       : 6
  105. Format                                   : UTF-8
  106. Codec ID                                 : S_TEXT/UTF8
  107. Codec ID/Info                            : UTF-8 Plain Text
  108. Duration                                 : 2 h 14 min
  109. Bit rate                                 : 70 b/s
  110. Count of elements                        : 1987
  111. Stream size                              : 69.3 KiB (0%)
  112. Title                                    : English-SDH-SRT
  113. Language                                 : English
  114. Default                                  : No
  115. Forced                                   : No
  116. Text #3
  117. ID                                       : 7
  118. Format                                   : PGS
  119. Muxing mode                              : zlib
  120. Codec ID                                 : S_HDMV/PGS
  121. Codec ID/Info                            : Picture based subtitle format used on BDs/HD-DVDs
  122. Duration                                 : 2 h 14 min
  123. Bit rate                                 : 42.5 kb/s
  124. Count of elements                        : 3979
  125. Stream size                              : 40.9 MiB (0%)
  126. Title                                    : English-PGS
  127. Language                                 : English
  128. Default                                  : No
  129. Forced                                   : No
  130. Text #4
  131. ID                                       : 8
  132. Format                                   : PGS
  133. Muxing mode                              : zlib
  134. Codec ID                                 : S_HDMV/PGS
  135. Codec ID/Info                            : Picture based subtitle format used on BDs/HD-DVDs
  136. Duration                                 : 2 h 19 min
  137. Bit rate                                 : 23.8 kb/s
  138. Count of elements                        : 2704
  139. Stream size                              : 23.8 MiB (0%)
  140. Title                                    : French-PGS
  141. Language                                 : French
  142. Default                                  : No
  143. Forced                                   : No
  144. Text #5
  145. ID                                       : 9
  146. Format                                   : PGS
  147. Muxing mode                              : zlib
  148. Codec ID                                 : S_HDMV/PGS
  149. Codec ID/Info                            : Picture based subtitle format used on BDs/HD-DVDs
  150. Duration                                 : 2 h 14 min
  151. Bit rate                                 : 29.6 kb/s
  152. Count of elements                        : 2424
  153. Stream size                              : 28.4 MiB (0%)
  154. Title                                    : German-PGS
  155. Language                                 : German
  156. Default                                  : No
  157. Forced                                   : No
  158. Menu
  159. 00:00:00.000                             : en:Chapter 01
  160. 00:14:50.291                             : en:Chapter 02
  161. 00:22:26.250                             : en:Chapter 03
  162. 00:41:02.958                             : en:Chapter 04
  163. 00:50:09.958                             : en:Chapter 05
  164. 01:09:07.875                             : en:Chapter 06
  165. 01:19:59.125                             : en:Chapter 07
  166. 01:29:20.250                             : en:Chapter 08
  167. 01:36:38.333                             : en:Chapter 09
  168. 01:47:33.416                             : en:Chapter 10
  169. 01:57:45.416                             : en:Chapter 11
  170. 02:12:07.208                             : en:Chapter 12
复制代码










                                       
                                       

                                       
                                       
                                       




回复

使用道具 举报

懒得打字嘛,点击右侧快捷回复 【右侧内容,后台自定义】
您需要登录后才可以回帖 登录 | 立即加入

本版积分规则

Archiver|小黑屋| 蓝光电影网 |网站地图

Copyright © 2021 Comsenz Inc. Powered by 蓝光电影网

蓝光电影网

本站内容由用户自主分享和转载自互联网,转载目的在于传递更多信息,并不代表本网赞同其观点和对其真实性负责。

如有侵权、违反国家法律政策行为,请联系我们,我们会第一时间及时清除和处理!

举报反馈邮箱:[email protected]

快速回复 返回顶部 返回列表