找回密码

蓝光电影网

查看: 9|回复: 0

[2160p] 大侦探皮卡丘 Pokemon.Detective.Pikachu.2019.2160p.UHD.BluRay.X265.10bit.HDR.TrueHD.7.1.Atmos-AAAUHD 21.06GB

[复制链接]
蓝光币
382
发表于 2019-7-28 12:40:20 | 显示全部楼层 |阅读模式


◎译  名 大侦察皮卡丘 / Detective Pikachu / POKéMON 名侦察皮卡丘(台) / Pokemon / 名侦察皮卡丘 / 宠物小精灵 / 宠物小精灵之名侦察皮卡丘 / 宠物小精灵真人版 / 精灵宝可梦 / 精灵宝可梦之名侦察皮卡丘 / 精灵宝可梦:大侦察皮卡丘
◎片  名 Pokémon Detective Pikachu
◎年  代 2019
◎产  地 美国 / 日本
◎类  别 笑剧 / 动画 / 奇异 / 冒险
◎语  言 英语 / 日语
◎上映日期 2019-05-10(美国/中国大陆)
◎IMDb评分  7.0/10 from 22561 users
◎IMDb链接  http://www.imdb.com/title/tt5884052
◎豆瓣评分 6.7/10 from 100671 users
◎豆瓣链接 https://movie.douban.com/subject/26835471/
◎片  长 104分钟
◎导  演 罗伯·莱特曼 Rob Letterman
◎编  剧 尼科尔·帕尔曼 Nicole Perlman / 亚历克斯·赫什 Alex Hirsch / Satoshi Tajiri
◎主  演 瑞恩·雷诺兹 Ryan Reynolds
      贾斯蒂斯·史姑娘 Justice Smith
      凯瑟琳·纽顿 Kathryn Newton
      克里斯·吉尔 Chris Geere
      比尔·奈伊 Bill Nighy
      渡边谦 Ken Watanabe
      瑞塔·奥拉 Rita Ora
      苏琪·沃特豪斯 Suki Waterhouse
      卡兰·索尼 Karan Soni
      普莉安卡·伯福德 Priyanga Burford
      乔丹·朗 Jordan Long
      贝恩·科拉科 Bern Colla?o
      卡迪夫柯万 Kadiff Kirwan
      奥马尔·查帕罗 Omar Chaparro
      伯纳多·桑托斯 Bernardo Santos
      大谷育江 Ikue Ootani
      露丝·霍洛克斯 Ruth Horrocks
      丹尼尔·厄根 Daniel Eghan
      贾格·帕特尔 Jag Patel
      查利·蕾娅·埃斯奎尔 Charlie Rhea Esquér
      黛博拉·洛克 Deborah Rock
      所罗门·塔伊沃·贾斯提费尔德 Solomon Taiwo Justified
      尼克·欧文福特 Nick Owenford
      凯文·马塔迪恩 Kevin Matadeen
      Diplo

◎标  签 动画 | 美国 | 童年 | 2019 | 日本 | 笑剧 | 动漫 | 游戏改编
◎简  介  
  好莱坞真人电影《大侦察皮卡丘》(暂译)报告了蒂姆·古德曼(贾 斯 提·史姑娘饰) 为寻觅着落不明的父亲来到莱姆市,意外与父亲的前宝可梦同伴大侦察皮卡丘相遇,并惊奇地发现自己是唯一能听懂皮卡丘措辞的人类,他们决议组队踏上揭开真相的刺激冒险之路。探案进程中他们相逢了林林总总 的宝可梦,并意外发现了一个足以扑灭全部宝可梦宇宙的惊天诡计。该电影改编自任天堂3DS同名游戏,由罗伯·莱特曼导演,瑞安·雷诺兹为大侦察皮卡丘配音,贾斯提斯·史姑娘、凯瑟琳·纽顿等主演。
◎获奖情况  
  第5届豆瓣电影年度榜单(2018)
  最值得期待的外语电影(提名)

  1. Video
  2. ID                                       : 1
  3. Format                                   : HEVC
  4. Format/Info                              : High Efficiency Video Coding
  5. Format profile                           : Main [email protected]@High
  6. HDR format                               : SMPTE ST 2086, HDR10 compatible
  7. Codec ID                                 : V_MPEGH/ISO/HEVC
  8. Duration                                 : 1 h 44 min
  9. Bit rate                                 : 24.4 Mb/s
  10. Width                                    : 3 840 pixels
  11. Height                                   : 1 608 pixels
  12. Display aspect ratio                     : 2.40:1
  13. Frame rate mode                          : Constant
  14. Frame rate                               : 23.976 (24000/1001) FPS
  15. Color space                              : YUV
  16. Chroma subsampling                       : 4:2:0 (Type 2)
  17. Bit depth                                : 10 bits
  18. Bits/(Pixel*Frame)                       : 0.165
  19. Stream size                              : 17.8 GiB (85%)
  20. Title                                    : Pokemon.Detective.Pikachu.2019.2160p.UHD.BluRay.x265-AAAUHD
  21. Writing library                          : x265 3.1b36c03e4e771:[Windows][GCC 6.3.0][64 bit] 10bit
  22. Encoding settings                        : cpuid=1111039 / frame-threads=4 / numa-pools=24 / wpp / no-pmode / no-pme / no-psnr / no-ssim / log-level=2 / input-csp=1 / input-res=3840x1608 / interlace=0 / total-frames=150292 / level-idc=51 / high-tier=1 / uhd-bd=0 / ref=5 / no-allow-non-conformance / repeat-headers / annexb / aud / hrd / info / hash=0 / no-temporal-layers / no-open-gop / min-keyint=1 / keyint=24 / gop-lookahead=0 / bframes=4 / b-adapt=2 / b-pyramid / bframe-bias=0 / rc-lookahead=25 / lookahead-slices=4 / scenecut=40 / radl=0 / no-splice / no-intra-refresh / ctu=64 / min-cu-size=8 / rect / no-amp / max-tu-size=32 / tu-inter-depth=1 / tu-intra-depth=1 / limit-tu=0 / rdoq-level=2 / dynamic-rd=0.00 / no-ssim-rd / signhide / no-tskip / nr-intra=0 / nr-inter=0 / no-constrained-intra / no-strong-intra-smoothing / max-merge=4 / limit-refs=3 / limit-modes / me=3 / subme=4 / merange=57 / temporal-mvp / weightp / no-weightb / no-analyze-src-pics / deblock=-3:-3 / no-sao / no-sao-non-deblock / rd=4 / no-early-skip / rskip / no-fast-intra / no-tskip-fast / no-cu-lossless / no-b-intra / no-splitrd-skip / rdpenalty=0 / psy-rd=2.00 / psy-rdoq=1.00 / no-rd-refine / no-lossless / cbqpoffs=0 / crqpoffs=0 / rc=crf / crf=17.0 / qcomp=0.60 / qpstep=4 / stats-write=0 / stats-read=0 / vbv-maxrate=160000 / vbv-bufsize=160000 / vbv-init=0.9 / crf-max=0.0 / crf-min=0.0 / ipratio=1.40 / pbratio=1.30 / aq-mode=2 / aq-strength=1.00 / cutree / zone-count=0 / no-strict-cbr / qg-size=32 / no-rc-grain / qpmax=69 / qpmin=0 / no-const-vbv / sar=1 / overscan=0 / videoformat=5 / range=0 / colorprim=9 / transfer=16 / colormatrix=9 / chromaloc=1 / chromaloc-top=2 / chromaloc-bottom=2 / display-window=0 / master-display=G(13250,34500)B(7500,3000)R(34000,16000)WP(15635,16450)L(40000000,50)cll=200,89 / min-luma=0 / max-luma=1023 / log2-max-poc-lsb=8 / vui-timing-info / vui-hrd-info / slices=1 / no-opt-qp-pps / no-opt-ref-list-length-pps / no-multi-pass-opt-rps / scenecut-bias=0.05 / no-opt-cu-delta-qp / no-aq-motion / hdr / hdr-opt / no-dhdr10-opt / no-idr-recovery-sei / analysis-reuse-level=5 / scale-factor=0 / refine-intra=0 / refine-inter=0 / refine-mv=0 / refine-ctu-distortion=0 / no-limit-sao / ctu-info=0 / no-lowpass-dct / refine-analysis-type=0 / copy-pic=1 / max-ausize-factor=1.0 / no-dynamic-refine / no-single-sei / no-hevc-aq / no-svt / no-field / qp-adaptation-range=1.00
  23. Default                                  : Yes
  24. Forced                                   : No
  25. Color range                              : Limited
  26. Color primaries                          : BT.2020
  27. Transfer characteristics                 : PQ
  28. Matrix coefficients                      : BT.2020 non-constant
  29. Mastering display color primaries        : Display P3
  30. Mastering display luminance              : min: 0.0050 cd/m2, max: 4000 cd/m2
  31. Maximum Content Light Level              : 200 cd/m2
  32. Maximum Frame-Average Light Level        : 89 cd/m2
  33. Audio #1
  34. ID                                       : 2
  35. Format                                   : MLP FBA 16-ch
  36. Format/Info                              : Meridian Lossless Packing FBA with 16-channel presentation
  37. Commercial name                          : Dolby TrueHD with Dolby Atmos
  38. Codec ID                                 : A_TRUEHD
  39. Duration                                 : 1 h 44 min
  40. Bit rate mode                            : Variable
  41. Bit rate                                 : 3 234 kb/s
  42. Maximum bit rate                         : 6 081 kb/s
  43. Channel(s)                               : 8 channels
  44. Channel layout                           : L R C LFE Ls Rs Lb Rb
  45. Sampling rate                            : 48.0 kHz
  46. Frame rate                               : 1 200.000 FPS (40 SPF)
  47. Compression mode                         : Lossless
  48. Stream size                              : 2.36 GiB (11%)
  49. Title                                    : English TrueHD
  50. Language                                 : English
  51. Default                                  : Yes
  52. Forced                                   : No
  53. Number of dynamic objects                : 15
  54. Bed channel count                        : 1 channel
  55. Bed channel configuration                : LFE
  56. Audio #2
  57. ID                                       : 3
  58. Format                                   : AC-3
  59. Format/Info                              : Audio Coding 3
  60. Commercial name                          : Dolby Digital
  61. Codec ID                                 : A_AC3
  62. Duration                                 : 1 h 44 min
  63. Bit rate mode                            : Constant
  64. Bit rate                                 : 640 kb/s
  65. Channel(s)                               : 6 channels
  66. Channel layout                           : L R C LFE Ls Rs
  67. Sampling rate                            : 48.0 kHz
  68. Frame rate                               : 31.250 FPS (1536 SPF)
  69. Bit depth                                : 16 bits
  70. Compression mode                         : Lossy
  71. Stream size                              : 478 MiB (2%)
  72. Title                                    : English AC3 @ 640
  73. Language                                 : English
  74. Service kind                             : Complete Main
  75. Default                                  : No
  76. Forced                                   : No
  77. Text #1
  78. ID                                       : 4
  79. Format                                   : UTF-8
  80. Codec ID                                 : S_TEXT/UTF8
  81. Codec ID/Info                            : UTF-8 Plain Text
  82. Duration                                 : 1 h 36 min
  83. Bit rate                                 : 69 b/s
  84. Count of elements                        : 1597
  85. Stream size                              : 49.0 KiB (0%)
  86. Title                                    : English SDH
  87. Language                                 : English
  88. Default                                  : No
  89. Forced                                   : No
  90. Text #2
  91. ID                                       : 5
  92. Format                                   : PGS
  93. Muxing mode                              : zlib
  94. Codec ID                                 : S_HDMV/PGS
  95. Codec ID/Info                            : Picture based subtitle format used on BDs/HD-DVDs
  96. Duration                                 : 1 h 43 min
  97. Bit rate                                 : 12.0 kb/s
  98. Count of elements                        : 2606
  99. Stream size                              : 8.88 MiB (0%)
  100. Title                                    : Bulgarian
  101. Language                                 : Bulgarian
  102. Default                                  : No
  103. Forced                                   : No
  104. Text #3
  105. ID                                       : 6
  106. Format                                   : PGS
  107. Muxing mode                              : zlib
  108. Codec ID                                 : S_HDMV/PGS
  109. Codec ID/Info                            : Picture based subtitle format used on BDs/HD-DVDs
  110. Duration                                 : 1 h 15 min
  111. Bit rate                                 : 304 b/s
  112. Count of elements                        : 42
  113. Stream size                              : 167 KiB (0%)
  114. Title                                    : Bulgarian
  115. Language                                 : Bulgarian
  116. Default                                  : No
  117. Forced                                   : No
  118. Text #4
  119. ID                                       : 7
  120. Format                                   : PGS
  121. Muxing mode                              : zlib
  122. Codec ID                                 : S_HDMV/PGS
  123. Codec ID/Info                            : Picture based subtitle format used on BDs/HD-DVDs
  124. Duration                                 : 1 h 43 min
  125. Bit rate                                 : 16.2 kb/s
  126. Count of elements                        : 2556
  127. Stream size                              : 12.0 MiB (0%)
  128. Title                                    : Chinese 1
  129. Language                                 : Chinese
  130. Default                                  : No
  131. Forced                                   : No
  132. Text #5
  133. ID                                       : 8
  134. Format                                   : PGS
  135. Muxing mode                              : zlib
  136. Codec ID                                 : S_HDMV/PGS
  137. Codec ID/Info                            : Picture based subtitle format used on BDs/HD-DVDs
  138. Duration                                 : 1 h 43 min
  139. Bit rate                                 : 16.2 kb/s
  140. Count of elements                        : 2606
  141. Stream size                              : 12.0 MiB (0%)
  142. Title                                    : Chinese 2
  143. Language                                 : Chinese
  144. Default                                  : No
  145. Forced                                   : No
  146. Text #6
  147. ID                                       : 9
  148. Format                                   : PGS
  149. Muxing mode                              : zlib
  150. Codec ID                                 : S_HDMV/PGS
  151. Codec ID/Info                            : Picture based subtitle format used on BDs/HD-DVDs
  152. Duration                                 : 1 h 16 min
  153. Bit rate                                 : 507 b/s
  154. Count of elements                        : 56
  155. Stream size                              : 285 KiB (0%)
  156. Title                                    : Chinese 3
  157. Language                                 : Chinese
  158. Default                                  : No
  159. Forced                                   : No
  160. Text #7
  161. ID                                       : 10
  162. Format                                   : PGS
  163. Muxing mode                              : zlib
  164. Codec ID                                 : S_HDMV/PGS
  165. Codec ID/Info                            : Picture based subtitle format used on BDs/HD-DVDs
  166. Duration                                 : 1 h 43 min
  167. Bit rate                                 : 12.6 kb/s
  168. Count of elements                        : 2582
  169. Stream size                              : 9.28 MiB (0%)
  170. Title                                    : Croatian
  171. Default                                  : No
  172. Forced                                   : No
  173. Text #8
  174. ID                                       : 11
  175. Format                                   : PGS
  176. Muxing mode                              : zlib
  177. Codec ID                                 : S_HDMV/PGS
  178. Codec ID/Info                            : Picture based subtitle format used on BDs/HD-DVDs
  179. Duration                                 : 1 h 43 min
  180. Bit rate                                 : 12.8 kb/s
  181. Count of elements                        : 2586
  182. Stream size                              : 9.46 MiB (0%)
  183. Title                                    : Czech
  184. Language                                 : Czech
  185. Default                                  : No
  186. Forced                                   : No
  187. Text #9
  188. ID                                       : 12
  189. Format                                   : PGS
  190. Muxing mode                              : zlib
  191. Codec ID                                 : S_HDMV/PGS
  192. Codec ID/Info                            : Picture based subtitle format used on BDs/HD-DVDs
  193. Duration                                 : 46 min 13 s
  194. Bit rate                                 : 111 b/s
  195. Count of elements                        : 10
  196. Stream size                              : 37.7 KiB (0%)
  197. Title                                    : Czech Forced
  198. Language                                 : Czech
  199. Default                                  : No
  200. Forced                                   : No
  201. Text #10
  202. ID                                       : 13
  203. Format                                   : PGS
  204. Muxing mode                              : zlib
  205. Codec ID                                 : S_HDMV/PGS
  206. Codec ID/Info                            : Picture based subtitle format used on BDs/HD-DVDs
  207. Duration                                 : 1 h 36 min
  208. Bit rate                                 : 16.9 kb/s
  209. Count of elements                        : 3194
  210. Stream size                              : 11.7 MiB (0%)
  211. Title                                    : English SDH
  212. Language                                 : English
  213. Default                                  : No
  214. Forced                                   : No
  215. Text #11
  216. ID                                       : 14
  217. Format                                   : PGS
  218. Muxing mode                              : zlib
  219. Codec ID                                 : S_HDMV/PGS
  220. Codec ID/Info                            : Picture based subtitle format used on BDs/HD-DVDs
  221. Duration                                 : 1 h 42 min
  222. Bit rate                                 : 11.6 kb/s
  223. Count of elements                        : 2684
  224. Stream size                              : 8.54 MiB (0%)
  225. Title                                    : French
  226. Language                                 : French
  227. Default                                  : No
  228. Forced                                   : No
  229. Text #12
  230. ID                                       : 15
  231. Format                                   : PGS
  232. Muxing mode                              : zlib
  233. Codec ID                                 : S_HDMV/PGS
  234. Codec ID/Info                            : Picture based subtitle format used on BDs/HD-DVDs
  235. Duration                                 : 39 min 47 s
  236. Bit rate                                 : 119 b/s
  237. Count of elements                        : 8
  238. Stream size                              : 34.9 KiB (0%)
  239. Title                                    : French Forced
  240. Language                                 : French
  241. Default                                  : No
  242. Forced                                   : No
  243. Text #13
  244. ID                                       : 16
  245. Format                                   : PGS
  246. Muxing mode                              : zlib
  247. Codec ID                                 : S_HDMV/PGS
  248. Codec ID/Info                            : Picture based subtitle format used on BDs/HD-DVDs
  249. Duration                                 : 1 h 10 min
  250. Bit rate                                 : 164 b/s
  251. Count of elements                        : 32
  252. Stream size                              : 84.4 KiB (0%)
  253. Title                                    : Hindi
  254. Language                                 : Hindi
  255. Default                                  : No
  256. Forced                                   : No
  257. Text #14
  258. ID                                       : 17
  259. Format                                   : PGS
  260. Muxing mode                              : zlib
  261. Codec ID                                 : S_HDMV/PGS
  262. Codec ID/Info                            : Picture based subtitle format used on BDs/HD-DVDs
  263. Duration                                 : 1 h 42 min
  264. Bit rate                                 : 12.1 kb/s
  265. Count of elements                        : 2608
  266. Stream size                              : 8.86 MiB (0%)
  267. Title                                    : Hungarian
  268. Language                                 : Hungarian
  269. Default                                  : No
  270. Forced                                   : No
  271. Text #15
  272. ID                                       : 18
  273. Format                                   : PGS
  274. Muxing mode                              : zlib
  275. Codec ID                                 : S_HDMV/PGS
  276. Codec ID/Info                            : Picture based subtitle format used on BDs/HD-DVDs
  277. Duration                                 : 1 h 7 min
  278. Bit rate                                 : 120 b/s
  279. Count of elements                        : 16
  280. Stream size                              : 59.3 KiB (0%)
  281. Title                                    : Hungarian Forced
  282. Language                                 : Hungarian
  283. Default                                  : No
  284. Forced                                   : No
  285. Text #16
  286. ID                                       : 19
  287. Format                                   : PGS
  288. Muxing mode                              : zlib
  289. Codec ID                                 : S_HDMV/PGS
  290. Codec ID/Info                            : Picture based subtitle format used on BDs/HD-DVDs
  291. Duration                                 : 1 h 36 min
  292. Bit rate                                 : 9 245 b/s
  293. Count of elements                        : 2536
  294. Stream size                              : 6.37 MiB (0%)
  295. Title                                    : Korean
  296. Language                                 : Korean
  297. Default                                  : No
  298. Forced                                   : No
  299. Text #17
  300. ID                                       : 20
  301. Format                                   : PGS
  302. Muxing mode                              : zlib
  303. Codec ID                                 : S_HDMV/PGS
  304. Codec ID/Info                            : Picture based subtitle format used on BDs/HD-DVDs
  305. Duration                                 : 1 h 10 min
  306. Bit rate                                 : 146 b/s
  307. Count of elements                        : 34
  308. Stream size                              : 75.7 KiB (0%)
  309. Title                                    : Korean Forced
  310. Language                                 : Korean
  311. Default                                  : No
  312. Forced                                   : No
  313. Text #18
  314. ID                                       : 21
  315. Format                                   : PGS
  316. Muxing mode                              : zlib
  317. Codec ID                                 : S_HDMV/PGS
  318. Codec ID/Info                            : Picture based subtitle format used on BDs/HD-DVDs
  319. Duration                                 : 1 h 43 min
  320. Bit rate                                 : 14.6 kb/s
  321. Count of elements                        : 2558
  322. Stream size                              : 10.8 MiB (0%)
  323. Title                                    : Portuguese
  324. Language                                 : Portuguese
  325. Default                                  : No
  326. Forced                                   : No
  327. Text #19
  328. ID                                       : 22
  329. Format                                   : PGS
  330. Muxing mode                              : zlib
  331. Codec ID                                 : S_HDMV/PGS
  332. Codec ID/Info                            : Picture based subtitle format used on BDs/HD-DVDs
  333. Duration                                 : 1 h 9 min
  334. Bit rate                                 : 231 b/s
  335. Count of elements                        : 18
  336. Stream size                              : 118 KiB (0%)
  337. Title                                    : Portuguese Forced
  338. Language                                 : Portuguese
  339. Default                                  : No
  340. Forced                                   : No
  341. Text #20
  342. ID                                       : 23
  343. Format                                   : PGS
  344. Muxing mode                              : zlib
  345. Codec ID                                 : S_HDMV/PGS
  346. Codec ID/Info                            : Picture based subtitle format used on BDs/HD-DVDs
  347. Duration                                 : 1 h 43 min
  348. Bit rate                                 : 12.6 kb/s
  349. Count of elements                        : 2520
  350. Stream size                              : 9.34 MiB (0%)
  351. Title                                    : Romanian
  352. Language                                 : Romanian
  353. Default                                  : No
  354. Forced                                   : No
  355. Text #21
  356. ID                                       : 24
  357. Format                                   : PGS
  358. Muxing mode                              : zlib
  359. Codec ID                                 : S_HDMV/PGS
  360. Codec ID/Info                            : Picture based subtitle format used on BDs/HD-DVDs
  361. Duration                                 : 1 h 15 min
  362. Bit rate                                 : 334 b/s
  363. Count of elements                        : 38
  364. Stream size                              : 184 KiB (0%)
  365. Title                                    : Romanian Forced
  366. Language                                 : Romanian
  367. Default                                  : No
  368. Forced                                   : No
  369. Text #22
  370. ID                                       : 25
  371. Format                                   : PGS
  372. Muxing mode                              : zlib
  373. Codec ID                                 : S_HDMV/PGS
  374. Codec ID/Info                            : Picture based subtitle format used on BDs/HD-DVDs
  375. Duration                                 : 1 h 43 min
  376. Bit rate                                 : 12.4 kb/s
  377. Count of elements                        : 2804
  378. Stream size                              : 9.20 MiB (0%)
  379. Title                                    : Russian
  380. Language                                 : Russian
  381. Default                                  : No
  382. Forced                                   : No
  383. Text #23
  384. ID                                       : 26
  385. Format                                   : PGS
  386. Muxing mode                              : zlib
  387. Codec ID                                 : S_HDMV/PGS
  388. Codec ID/Info                            : Picture based subtitle format used on BDs/HD-DVDs
  389. Duration                                 : 50 min 1 s
  390. Bit rate                                 : 231 b/s
  391. Count of elements                        : 22
  392. Stream size                              : 84.9 KiB (0%)
  393. Title                                    : Russian Forced
  394. Language                                 : Russian
  395. Default                                  : No
  396. Forced                                   : No
  397. Text #24
  398. ID                                       : 27
  399. Format                                   : PGS
  400. Muxing mode                              : zlib
  401. Codec ID                                 : S_HDMV/PGS
  402. Codec ID/Info                            : Picture based subtitle format used on BDs/HD-DVDs
  403. Duration                                 : 1 h 8 min
  404. Bit rate                                 : 129 b/s
  405. Count of elements                        : 10
  406. Stream size                              : 64.9 KiB (0%)
  407. Title                                    : Slovak
  408. Language                                 : Slovak
  409. Default                                  : No
  410. Forced                                   : No
  411. Text #25
  412. ID                                       : 28
  413. Format                                   : PGS
  414. Muxing mode                              : zlib
  415. Codec ID                                 : S_HDMV/PGS
  416. Codec ID/Info                            : Picture based subtitle format used on BDs/HD-DVDs
  417. Duration                                 : 1 h 43 min
  418. Bit rate                                 : 11.5 kb/s
  419. Count of elements                        : 2216
  420. Stream size                              : 8.49 MiB (0%)
  421. Title                                    : Slovenian
  422. Language                                 : Slovenian
  423. Default                                  : No
  424. Forced                                   : No
  425. Text #26
  426. ID                                       : 29
  427. Format                                   : PGS
  428. Muxing mode                              : zlib
  429. Codec ID                                 : S_HDMV/PGS
  430. Codec ID/Info                            : Picture based subtitle format used on BDs/HD-DVDs
  431. Duration                                 : 1 h 42 min
  432. Bit rate                                 : 13.9 kb/s
  433. Count of elements                        : 2594
  434. Stream size                              : 10.2 MiB (0%)
  435. Title                                    : Spanish
  436. Language                                 : Spanish
  437. Default                                  : No
  438. Forced                                   : No
  439. Text #27
  440. ID                                       : 30
  441. Format                                   : PGS
  442. Muxing mode                              : zlib
  443. Codec ID                                 : S_HDMV/PGS
  444. Codec ID/Info                            : Picture based subtitle format used on BDs/HD-DVDs
  445. Duration                                 : 1 h 7 min
  446. Bit rate                                 : 164 b/s
  447. Count of elements                        : 20
  448. Stream size                              : 81.4 KiB (0%)
  449. Title                                    : Spanish Forced
  450. Language                                 : Spanish
  451. Default                                  : No
  452. Forced                                   : No
  453. Text #28
  454. ID                                       : 31
  455. Format                                   : PGS
  456. Muxing mode                              : zlib
  457. Codec ID                                 : S_HDMV/PGS
  458. Codec ID/Info                            : Picture based subtitle format used on BDs/HD-DVDs
  459. Duration                                 : 1 h 43 min
  460. Bit rate                                 : 13.2 kb/s
  461. Count of elements                        : 2614
  462. Stream size                              : 9.72 MiB (0%)
  463. Title                                    : Thai
  464. Language                                 : Thai
  465. Default                                  : No
  466. Forced                                   : No
  467. Text #29
  468. ID                                       : 32
  469. Format                                   : PGS
  470. Muxing mode                              : zlib
  471. Codec ID                                 : S_HDMV/PGS
  472. Codec ID/Info                            : Picture based subtitle format used on BDs/HD-DVDs
  473. Duration                                 : 1 h 7 min
  474. Bit rate                                 : 201 b/s
  475. Count of elements                        : 26
  476. Stream size                              : 99.6 KiB (0%)
  477. Title                                    : Thai Forced
  478. Language                                 : Thai
  479. Default                                  : No
  480. Forced                                   : No
  481. Text #30
  482. ID                                       : 33
  483. Format                                   : PGS
  484. Muxing mode                              : zlib
  485. Codec ID                                 : S_HDMV/PGS
  486. Codec ID/Info                            : Picture based subtitle format used on BDs/HD-DVDs
  487. Duration                                 : 1 h 36 min
  488. Bit rate                                 : 14.3 kb/s
  489. Count of elements                        : 2600
  490. Stream size                              : 9.82 MiB (0%)
  491. Title                                    : Turkish
  492. Language                                 : Turkish
  493. Default                                  : No
  494. Forced                                   : No
  495. Text #31
  496. ID                                       : 34
  497. Format                                   : PGS
  498. Muxing mode                              : zlib
  499. Codec ID                                 : S_HDMV/PGS
  500. Codec ID/Info                            : Picture based subtitle format used on BDs/HD-DVDs
  501. Duration                                 : 1 h 15 min
  502. Bit rate                                 : 284 b/s
  503. Count of elements                        : 32
  504. Stream size                              : 157 KiB (0%)
  505. Title                                    : Turkish Forced
  506. Language                                 : Turkish
  507. Default                                  : No
  508. Forced                                   : No
  509. Menu
  510. 00:00:00.000                             : en:00:00:00.000
  511. 00:06:55.624                             : en:00:06:55.624
  512. 00:15:36.352                             : en:00:15:36.352
  513. 00:24:06.111                             : en:00:24:06.111
  514. 00:30:59.775                             : en:00:30:59.775
  515. 00:40:45.610                             : en:00:40:45.610
  516. 00:49:56.744                             : en:00:49:56.744
  517. 00:59:49.336                             : en:00:59:49.336
  518. 01:09:22.450                             : en:01:09:22.450
  519. 01:16:59.657                             : en:01:16:59.657
  520. 01:23:20.495                             : en:01:23:20.495
  521. 01:30:55.033                             : en:01:30:55.033
  522. 01:35:48.826                             : en:01:35:48.826
复制代码






                                       
                                       

                                       
                                       
                                       




大侦察皮卡丘 Pokemon.Detective.Pikachu.2019.2160p.UHD.BluRay.X265.10bit.HDR.TrueHD.7.1.Atmos-AAAUHD 21.06GB

Pokemon.Detective.Pikachu.2019.2160p.UHD.BluRay.X265.10bit.HDR.TrueHD.7.1.Atmos-.torrent

53.39 KB, 下载次数: 0, 下载积分: 蓝光币 -2

回复

使用道具 举报

懒得打字嘛,点击右侧快捷回复 【右侧内容,后台自定义】
您需要登录后才可以回帖 登录 | 立即加入

本版积分规则

Archiver|小黑屋| 蓝光电影网 |网站地图

Copyright © 2021 Comsenz Inc. Powered by 蓝光电影网

蓝光电影网

本站内容由用户自主分享和转载自互联网,转载目的在于传递更多信息,并不代表本网赞同其观点和对其真实性负责。

如有侵权、违反国家法律政策行为,请联系我们,我们会第一时间及时清除和处理!

举报反馈邮箱:[email protected]

快速回复 返回顶部 返回列表