找回密码

蓝光电影网

查看: 4|回复: 0

[UHD.HEVC] 地狱男爵2:黄金军团/地狱怪客2:金甲军团 Hellboy.II.The.Golden.Army.2008.2160p.BluRay.REMUX.HEVC.DTS-X.7.1-FGT 54.23GB

[复制链接]
蓝光币
382
发表于 2019-5-22 19:27:27 | 显示全部楼层 |阅读模式




◎译  名 天堂男爵2:黄金军团 / 天堂怪客2:金甲军团(台) / 天魔特攻之鬼魅兵团(港) / 悍将归来:黄金军团 / 炎火奇侠:黄金军团
◎片  名 Hellboy 2: The Golden Army
◎年  代 2008
◎产  地 美国
◎类  别 行动 / 奇异 / 冒险
◎语  言 英语
◎上映日期 2008-07-11(美国) / 2008-11-21(中国大陆)
◎IMDb评分  7.0/10 from 240856 users
◎IMDb链接  http://www.imdb.com/title/tt0411477
◎豆瓣评分 6.8/10 from 42205 users
◎豆瓣链接 https://movie.douban.com/subject/1873750/
◎片  长 120 分钟
◎导  演 吉尔莫·德尔·托罗 Guillermo del Toro
◎编  剧 吉尔莫·德尔·托罗 Guillermo del Toro / 迈克·米格诺拉 Mike Mignola
◎主  演 朗·普尔曼 Ron Perlman
      塞尔玛·布莱尔 Selma Blair
      道格·琼斯 Doug Jones
      1330240
      詹姆斯·多德 James Dodd
      塞思·麦克法兰 Seth MacFarlane
      鲁克·高斯 Luke Goss
      安娜·沃尔顿 Anna Walton

◎标  签 美国 | 魔幻 | 漫画改编 | 科幻 | 行动 | 天堂男爵2 | 美国电影 | 2008
◎简  介  
  人世与天堂,自古订下了停战契约,只要契约一日无人超越,天堂邪魔便不能捣蛋。千百年来,两界一向相安无事。但是,天堂当中,一股酝酿已久的邪恶势力悄悄蓄势待发......
可以行走于六合两界的暴君弩阿达王子(鲁克·高斯 Luke Goss 饰),企图用鲜血叫醒无敌的魔兽军团,用天堂之火焚烧人世。在他的血的呼唤下,天堂深处蛰伏已久的魔兽们纷纷冲出地底。面临无坚不摧的黄金军团,唯一能拯救人世免于堕入炼狱的,只要天堂男爵(朗·普尔曼 Ron Perlman 饰)。虽然身上流着恶魔的血,但早已皈依善良的红角撒旦,自告奋勇站在了人类一边。他将同火焰女(塞尔玛·布莱尔 Selma Blair 饰)、鱼人(道格·琼斯 Doug Jones 饰)等“超自然研讨成长局”的盟友一路,跨越阴阳两界屠魔,抵抗人世浩劫!这一次男爵又会不会再次被邪恶赋性蚕噬?
◎获奖情况  
  第81届奥斯卡金像奖(2009)
  最好化装(提名) Mike Elizalde / Thomas Floutz
  第18届MTV电影奖(2009)
  MTV电影奖 最好打架(提名) 朗·普尔曼 / 鲁克·高斯
  MTV电影奖 最好反派(提名) 鲁克·高斯

  1. Video
  2. ID                                       : 1
  3. Format                                   : HEVC
  4. Format/Info                              : High Efficiency Video Coding
  5. Commercial name                          : HDR10
  6. Format profile                           : Main [email protected]@High
  7. Codec ID                                 : V_MPEGH/ISO/HEVC
  8. Duration                                 : 1 h 59 min
  9. Bit rate                                 : 53.0 Mb/s
  10. Width                                    : 3 840 pixels
  11. Height                                   : 2 160 pixels
  12. Display aspect ratio                     : 16:9
  13. Frame rate mode                          : Constant
  14. Frame rate                               : 23.976 (24000/1001) FPS
  15. Color space                              : YUV
  16. Chroma subsampling                       : 4:2:0 (Type 2)
  17. Bit depth                                : 10 bits
  18. Bits/(Pixel*Frame)                       : 0.267
  19. Stream size                              : 44.3 GiB (82%)
  20. Title                                    : Hellboy.II.The.Golden.Army.2008.2160p.BluRay.REMUX.HEVC.DTS-X.7.1-FGT
  21. Language                                 : English
  22. Default                                  : No
  23. Forced                                   : No
  24. Color range                              : Limited
  25. Color primaries                          : BT.2020
  26. Transfer characteristics                 : PQ
  27. Matrix coefficients                      : BT.2020 non-constant
  28. Mastering display color primaries        : Display P3
  29. Mastering display luminance              : min: 0.0050 cd/m2, max: 1000 cd/m2
  30. Maximum Content Light Level              : 1000 cd/m2
  31. Maximum Frame-Average Light Level        : 98 cd/m2
  32. Audio #1
  33. ID                                       : 2
  34. Format                                   : DTS XLL X
  35. Format/Info                              : Digital Theater Systems
  36. Commercial name                          : DTS-HD Master Audio
  37. Codec ID                                 : A_DTS
  38. Duration                                 : 1 h 59 min
  39. Bit rate mode                            : Variable
  40. Bit rate                                 : 7 374 kb/s
  41. Channel(s)                               : 8 channels
  42. Channel(s)_Original                      : Object Based
  43. Channel layout                           : Object Based
  44. Sampling rate                            : 48.0 kHz
  45. Frame rate                               : 93.750 FPS (512 SPF)
  46. Bit depth                                : 24 bits
  47. Stream size                              : 6.16 GiB (11%)
  48. Title                                    : Hellboy.II.The.Golden.Army.2008.2160p.BluRay.REMUX.HEVC.DTS-X.7.1-FGT
  49. Language                                 : English
  50. Default                                  : Yes
  51. Forced                                   : No
  52. Audio #2
  53. ID                                       : 3
  54. Format                                   : DTS
  55. Format/Info                              : Digital Theater Systems
  56. Codec ID                                 : A_DTS
  57. Duration                                 : 1 h 59 min
  58. Bit rate mode                            : Constant
  59. Bit rate                                 : 768 kb/s
  60. Channel(s)                               : 6 channels
  61. Channel layout                           : C L R Ls Rs LFE
  62. Sampling rate                            : 48.0 kHz
  63. Frame rate                               : 93.750 FPS (512 SPF)
  64. Bit depth                                : 24 bits
  65. Compression mode                         : Lossy
  66. Stream size                              : 657 MiB (1%)
  67. Title                                    : Hellboy.II.The.Golden.Army.2008.2160p.BluRay.REMUX.HEVC.DTS-X.7.1-FGT
  68. Language                                 : French
  69. Default                                  : No
  70. Forced                                   : No
  71. Audio #3
  72. ID                                       : 4
  73. Format                                   : DTS
  74. Format/Info                              : Digital Theater Systems
  75. Codec ID                                 : A_DTS
  76. Duration                                 : 1 h 59 min
  77. Bit rate mode                            : Constant
  78. Bit rate                                 : 768 kb/s
  79. Channel(s)                               : 6 channels
  80. Channel layout                           : C L R Ls Rs LFE
  81. Sampling rate                            : 48.0 kHz
  82. Frame rate                               : 93.750 FPS (512 SPF)
  83. Bit depth                                : 24 bits
  84. Compression mode                         : Lossy
  85. Stream size                              : 657 MiB (1%)
  86. Title                                    : Hellboy.II.The.Golden.Army.2008.2160p.BluRay.REMUX.HEVC.DTS-X.7.1-FGT
  87. Language                                 : Russian
  88. Default                                  : No
  89. Forced                                   : No
  90. Audio #4
  91. ID                                       : 5
  92. Format                                   : DTS
  93. Format/Info                              : Digital Theater Systems
  94. Codec ID                                 : A_DTS
  95. Duration                                 : 1 h 59 min
  96. Bit rate mode                            : Constant
  97. Bit rate                                 : 768 kb/s
  98. Channel(s)                               : 6 channels
  99. Channel layout                           : C L R Ls Rs LFE
  100. Sampling rate                            : 48.0 kHz
  101. Frame rate                               : 93.750 FPS (512 SPF)
  102. Bit depth                                : 24 bits
  103. Compression mode                         : Lossy
  104. Stream size                              : 657 MiB (1%)
  105. Title                                    : Hellboy.II.The.Golden.Army.2008.2160p.BluRay.REMUX.HEVC.DTS-X.7.1-FGT
  106. Language                                 : Czech
  107. Default                                  : No
  108. Forced                                   : No
  109. Audio #5
  110. ID                                       : 6
  111. Format                                   : DTS
  112. Format/Info                              : Digital Theater Systems
  113. Codec ID                                 : A_DTS
  114. Duration                                 : 1 h 59 min
  115. Bit rate mode                            : Constant
  116. Bit rate                                 : 768 kb/s
  117. Channel(s)                               : 6 channels
  118. Channel layout                           : C L R Ls Rs LFE
  119. Sampling rate                            : 48.0 kHz
  120. Frame rate                               : 93.750 FPS (512 SPF)
  121. Bit depth                                : 24 bits
  122. Compression mode                         : Lossy
  123. Stream size                              : 657 MiB (1%)
  124. Title                                    : Hellboy.II.The.Golden.Army.2008.2160p.BluRay.REMUX.HEVC.DTS-X.7.1-FGT
  125. Language                                 : Hungarian
  126. Default                                  : No
  127. Forced                                   : No
  128. Audio #6
  129. ID                                       : 7
  130. Format                                   : DTS
  131. Format/Info                              : Digital Theater Systems
  132. Codec ID                                 : A_DTS
  133. Duration                                 : 1 h 59 min
  134. Bit rate mode                            : Constant
  135. Bit rate                                 : 768 kb/s
  136. Channel(s)                               : 6 channels
  137. Channel layout                           : C L R Ls Rs LFE
  138. Sampling rate                            : 48.0 kHz
  139. Frame rate                               : 93.750 FPS (512 SPF)
  140. Bit depth                                : 24 bits
  141. Compression mode                         : Lossy
  142. Stream size                              : 657 MiB (1%)
  143. Title                                    : Hellboy.II.The.Golden.Army.2008.2160p.BluRay.REMUX.HEVC.DTS-X.7.1-FGT
  144. Language                                 : Polish
  145. Default                                  : No
  146. Forced                                   : No
  147. Audio #7
  148. ID                                       : 8
  149. Format                                   : AC-3
  150. Format/Info                              : Audio Coding 3
  151. Commercial name                          : Dolby Digital
  152. Codec ID                                 : A_AC3
  153. Duration                                 : 1 h 59 min
  154. Bit rate mode                            : Constant
  155. Bit rate                                 : 192 kb/s
  156. Channel(s)                               : 2 channels
  157. Channel layout                           : L R
  158. Sampling rate                            : 48.0 kHz
  159. Frame rate                               : 31.250 FPS (1536 SPF)
  160. Bit depth                                : 16 bits
  161. Compression mode                         : Lossy
  162. Stream size                              : 164 MiB (0%)
  163. Title                                    : Hellboy.II.The.Golden.Army.2008.2160p.BluRay.REMUX.HEVC.DTS-X.7.1-FGT
  164. Language                                 : English
  165. Service kind                             : Complete Main
  166. Default                                  : No
  167. Forced                                   : No
  168. Audio #8
  169. ID                                       : 9
  170. Format                                   : AC-3
  171. Format/Info                              : Audio Coding 3
  172. Commercial name                          : Dolby Digital
  173. Codec ID                                 : A_AC3
  174. Duration                                 : 1 h 59 min
  175. Bit rate mode                            : Constant
  176. Bit rate                                 : 192 kb/s
  177. Channel(s)                               : 2 channels
  178. Channel layout                           : L R
  179. Sampling rate                            : 48.0 kHz
  180. Frame rate                               : 31.250 FPS (1536 SPF)
  181. Bit depth                                : 16 bits
  182. Compression mode                         : Lossy
  183. Stream size                              : 164 MiB (0%)
  184. Title                                    : Hellboy.II.The.Golden.Army.2008.2160p.BluRay.REMUX.HEVC.DTS-X.7.1-FGT
  185. Language                                 : English
  186. Service kind                             : Complete Main
  187. Default                                  : No
  188. Forced                                   : No
  189. Text #1
  190. ID                                       : 10
  191. Format                                   : UTF-8
  192. Codec ID                                 : S_TEXT/UTF8
  193. Codec ID/Info                            : UTF-8 Plain Text
  194. Duration                                 : 1 h 50 min
  195. Bit rate                                 : 47 b/s
  196. Count of elements                        : 1366
  197. Stream size                              : 38.2 KiB (0%)
  198. Title                                    : English-SRT
  199. Language                                 : English
  200. Default                                  : Yes
  201. Forced                                   : No
  202. Text #2
  203. ID                                       : 11
  204. Format                                   : UTF-8
  205. Codec ID                                 : S_TEXT/UTF8
  206. Codec ID/Info                            : UTF-8 Plain Text
  207. Duration                                 : 1 h 50 min
  208. Bit rate                                 : 49 b/s
  209. Count of elements                        : 1494
  210. Stream size                              : 39.9 KiB (0%)
  211. Title                                    : English-SDH-SRT
  212. Language                                 : English
  213. Default                                  : No
  214. Forced                                   : No
  215. Text #3
  216. ID                                       : 12
  217. Format                                   : PGS
  218. Muxing mode                              : zlib
  219. Codec ID                                 : S_HDMV/PGS
  220. Codec ID/Info                            : Picture based subtitle format used on BDs/HD-DVDs
  221. Duration                                 : 1 h 50 min
  222. Bit rate                                 : 34.1 kb/s
  223. Count of elements                        : 3001
  224. Stream size                              : 27.0 MiB (0%)
  225. Title                                    : English-PGS
  226. Language                                 : English
  227. Default                                  : No
  228. Forced                                   : No
  229. Text #4
  230. ID                                       : 13
  231. Format                                   : PGS
  232. Muxing mode                              : zlib
  233. Codec ID                                 : S_HDMV/PGS
  234. Codec ID/Info                            : Picture based subtitle format used on BDs/HD-DVDs
  235. Duration                                 : 1 h 58 min
  236. Bit rate                                 : 32.4 kb/s
  237. Count of elements                        : 2359
  238. Stream size                              : 27.5 MiB (0%)
  239. Title                                    : French-PGS
  240. Language                                 : French
  241. Default                                  : No
  242. Forced                                   : No
  243. Text #5
  244. ID                                       : 14
  245. Format                                   : PGS
  246. Muxing mode                              : zlib
  247. Codec ID                                 : S_HDMV/PGS
  248. Codec ID/Info                            : Picture based subtitle format used on BDs/HD-DVDs
  249. Duration                                 : 1 h 58 min
  250. Bit rate                                 : 24.2 kb/s
  251. Count of elements                        : 2313
  252. Stream size                              : 20.6 MiB (0%)
  253. Title                                    : Dutch-PGS
  254. Language                                 : Dutch
  255. Default                                  : No
  256. Forced                                   : No
  257. Text #6
  258. ID                                       : 15
  259. Format                                   : PGS
  260. Muxing mode                              : zlib
  261. Codec ID                                 : S_HDMV/PGS
  262. Codec ID/Info                            : Picture based subtitle format used on BDs/HD-DVDs
  263. Duration                                 : 1 h 58 min
  264. Bit rate                                 : 25.4 kb/s
  265. Count of elements                        : 2176
  266. Stream size                              : 21.6 MiB (0%)
  267. Title                                    : Danish-PGS
  268. Language                                 : Danish
  269. Default                                  : No
  270. Forced                                   : No
  271. Text #7
  272. ID                                       : 16
  273. Format                                   : PGS
  274. Muxing mode                              : zlib
  275. Codec ID                                 : S_HDMV/PGS
  276. Codec ID/Info                            : Picture based subtitle format used on BDs/HD-DVDs
  277. Duration                                 : 1 h 58 min
  278. Bit rate                                 : 24.8 kb/s
  279. Count of elements                        : 2313
  280. Stream size                              : 21.1 MiB (0%)
  281. Title                                    : Finnish-PGS
  282. Language                                 : Finnish
  283. Default                                  : No
  284. Forced                                   : No
  285. Text #8
  286. ID                                       : 17
  287. Format                                   : PGS
  288. Muxing mode                              : zlib
  289. Codec ID                                 : S_HDMV/PGS
  290. Codec ID/Info                            : Picture based subtitle format used on BDs/HD-DVDs
  291. Duration                                 : 1 h 58 min
  292. Bit rate                                 : 23.1 kb/s
  293. Count of elements                        : 2205
  294. Stream size                              : 19.7 MiB (0%)
  295. Title                                    : Norwegian-PGS
  296. Language                                 : Norwegian
  297. Default                                  : No
  298. Forced                                   : No
  299. Text #9
  300. ID                                       : 18
  301. Format                                   : PGS
  302. Muxing mode                              : zlib
  303. Codec ID                                 : S_HDMV/PGS
  304. Codec ID/Info                            : Picture based subtitle format used on BDs/HD-DVDs
  305. Duration                                 : 1 h 58 min
  306. Bit rate                                 : 27.0 kb/s
  307. Count of elements                        : 2315
  308. Stream size                              : 23.0 MiB (0%)
  309. Title                                    : Swedish-PGS
  310. Language                                 : Swedish
  311. Default                                  : No
  312. Forced                                   : No
  313. Text #10
  314. ID                                       : 19
  315. Format                                   : PGS
  316. Muxing mode                              : zlib
  317. Codec ID                                 : S_HDMV/PGS
  318. Codec ID/Info                            : Picture based subtitle format used on BDs/HD-DVDs
  319. Duration                                 : 1 h 58 min
  320. Bit rate                                 : 24.1 kb/s
  321. Count of elements                        : 2297
  322. Stream size                              : 20.5 MiB (0%)
  323. Title                                    : Czech-PGS
  324. Language                                 : Czech
  325. Default                                  : No
  326. Forced                                   : No
  327. Text #11
  328. ID                                       : 20
  329. Format                                   : PGS
  330. Muxing mode                              : zlib
  331. Codec ID                                 : S_HDMV/PGS
  332. Codec ID/Info                            : Picture based subtitle format used on BDs/HD-DVDs
  333. Duration                                 : 1 h 58 min
  334. Bit rate                                 : 25.5 kb/s
  335. Count of elements                        : 2257
  336. Stream size                              : 21.7 MiB (0%)
  337. Title                                    : Hungarian-PGS
  338. Language                                 : Hungarian
  339. Default                                  : No
  340. Forced                                   : No
  341. Text #12
  342. ID                                       : 21
  343. Format                                   : PGS
  344. Muxing mode                              : zlib
  345. Codec ID                                 : S_HDMV/PGS
  346. Codec ID/Info                            : Picture based subtitle format used on BDs/HD-DVDs
  347. Duration                                 : 1 h 58 min
  348. Bit rate                                 : 26.3 kb/s
  349. Count of elements                        : 2229
  350. Stream size                              : 22.4 MiB (0%)
  351. Title                                    : Polish-PGS
  352. Language                                 : Polish
  353. Default                                  : No
  354. Forced                                   : No
  355. Text #13
  356. ID                                       : 22
  357. Format                                   : PGS
  358. Muxing mode                              : zlib
  359. Codec ID                                 : S_HDMV/PGS
  360. Codec ID/Info                            : Picture based subtitle format used on BDs/HD-DVDs
  361. Duration                                 : 1 h 58 min
  362. Bit rate                                 : 21.6 kb/s
  363. Count of elements                        : 2245
  364. Stream size                              : 18.4 MiB (0%)
  365. Title                                    : Chinese-PGS
  366. Language                                 : Chinese
  367. Default                                  : No
  368. Forced                                   : No
  369. Text #14
  370. ID                                       : 23
  371. Format                                   : PGS
  372. Muxing mode                              : zlib
  373. Codec ID                                 : S_HDMV/PGS
  374. Codec ID/Info                            : Picture based subtitle format used on BDs/HD-DVDs
  375. Duration                                 : 1 h 58 min
  376. Bit rate                                 : 20.0 kb/s
  377. Count of elements                        : 2315
  378. Stream size                              : 17.0 MiB (0%)
  379. Title                                    : Korean-PGS
  380. Language                                 : Korean
  381. Default                                  : No
  382. Forced                                   : No
  383. Text #15
  384. ID                                       : 24
  385. Format                                   : PGS
  386. Muxing mode                              : zlib
  387. Codec ID                                 : S_HDMV/PGS
  388. Codec ID/Info                            : Picture based subtitle format used on BDs/HD-DVDs
  389. Duration                                 : 1 h 58 min
  390. Bit rate                                 : 31.4 kb/s
  391. Count of elements                        : 2322
  392. Stream size                              : 26.8 MiB (0%)
  393. Title                                    : Greek-PGS
  394. Language                                 : Greek
  395. Default                                  : No
  396. Forced                                   : No
  397. Text #16
  398. ID                                       : 25
  399. Format                                   : PGS
  400. Muxing mode                              : zlib
  401. Codec ID                                 : S_HDMV/PGS
  402. Codec ID/Info                            : Picture based subtitle format used on BDs/HD-DVDs
  403. Duration                                 : 1 h 58 min
  404. Bit rate                                 : 25.4 kb/s
  405. Count of elements                        : 2285
  406. Stream size                              : 21.6 MiB (0%)
  407. Title                                    : Romanian-PGS
  408. Language                                 : Romanian
  409. Default                                  : No
  410. Forced                                   : No
  411. Text #17
  412. ID                                       : 26
  413. Format                                   : PGS
  414. Muxing mode                              : zlib
  415. Codec ID                                 : S_HDMV/PGS
  416. Codec ID/Info                            : Picture based subtitle format used on BDs/HD-DVDs
  417. Duration                                 : 1 h 58 min
  418. Bit rate                                 : 1 130 b/s
  419. Count of elements                        : 112
  420. Stream size                              : 985 KiB (0%)
  421. Title                                    : French-FORCED-PGS
  422. Language                                 : French
  423. Default                                  : No
  424. Forced                                   : No
  425. Text #18
  426. ID                                       : 27
  427. Format                                   : PGS
  428. Muxing mode                              : zlib
  429. Codec ID                                 : S_HDMV/PGS
  430. Codec ID/Info                            : Picture based subtitle format used on BDs/HD-DVDs
  431. Duration                                 : 1 h 58 min
  432. Bit rate                                 : 1 027 b/s
  433. Count of elements                        : 112
  434. Stream size                              : 895 KiB (0%)
  435. Title                                    : Czech-FORCED-PGS
  436. Language                                 : Czech
  437. Default                                  : No
  438. Forced                                   : No
  439. Text #19
  440. ID                                       : 28
  441. Format                                   : PGS
  442. Muxing mode                              : zlib
  443. Codec ID                                 : S_HDMV/PGS
  444. Codec ID/Info                            : Picture based subtitle format used on BDs/HD-DVDs
  445. Duration                                 : 1 h 58 min
  446. Bit rate                                 : 1 085 b/s
  447. Count of elements                        : 116
  448. Stream size                              : 946 KiB (0%)
  449. Title                                    : Hungarian-FORCED-PGS
  450. Language                                 : Hungarian
  451. Default                                  : No
  452. Forced                                   : No
  453. Text #20
  454. ID                                       : 29
  455. Format                                   : PGS
  456. Muxing mode                              : zlib
  457. Codec ID                                 : S_HDMV/PGS
  458. Codec ID/Info                            : Picture based subtitle format used on BDs/HD-DVDs
  459. Duration                                 : 1 h 58 min
  460. Bit rate                                 : 1 380 b/s
  461. Count of elements                        : 116
  462. Stream size                              : 1.17 MiB (0%)
  463. Title                                    : Russian-FORCED-PGS
  464. Language                                 : Russian
  465. Default                                  : No
  466. Forced                                   : No
  467. Text #21
  468. ID                                       : 30
  469. Format                                   : PGS
  470. Muxing mode                              : zlib
  471. Codec ID                                 : S_HDMV/PGS
  472. Codec ID/Info                            : Picture based subtitle format used on BDs/HD-DVDs
  473. Duration                                 : 1 h 52 min
  474. Bit rate                                 : 66.6 kb/s
  475. Count of elements                        : 3188
  476. Stream size                              : 53.7 MiB (0%)
  477. Title                                    : English-COMMENTARY-PGS
  478. Language                                 : English
  479. Default                                  : No
  480. Forced                                   : No
  481. Text #22
  482. ID                                       : 31
  483. Format                                   : PGS
  484. Muxing mode                              : zlib
  485. Codec ID                                 : S_HDMV/PGS
  486. Codec ID/Info                            : Picture based subtitle format used on BDs/HD-DVDs
  487. Duration                                 : 1 h 59 min
  488. Bit rate                                 : 60.0 kb/s
  489. Count of elements                        : 3204
  490. Stream size                              : 51.2 MiB (0%)
  491. Title                                    : French-COMMENTARY-PGS
  492. Language                                 : French
  493. Default                                  : No
  494. Forced                                   : No
  495. Text #23
  496. ID                                       : 32
  497. Format                                   : PGS
  498. Muxing mode                              : zlib
  499. Codec ID                                 : S_HDMV/PGS
  500. Codec ID/Info                            : Picture based subtitle format used on BDs/HD-DVDs
  501. Duration                                 : 1 h 59 min
  502. Bit rate                                 : 50.6 kb/s
  503. Count of elements                        : 3206
  504. Stream size                              : 43.2 MiB (0%)
  505. Title                                    : Polish-COMMENTARY-PGS
  506. Language                                 : Polish
  507. Default                                  : No
  508. Forced                                   : No
  509. Text #24
  510. ID                                       : 33
  511. Format                                   : PGS
  512. Muxing mode                              : zlib
  513. Codec ID                                 : S_HDMV/PGS
  514. Codec ID/Info                            : Picture based subtitle format used on BDs/HD-DVDs
  515. Duration                                 : 1 h 59 min
  516. Bit rate                                 : 63.4 kb/s
  517. Count of elements                        : 3206
  518. Stream size                              : 54.1 MiB (0%)
  519. Title                                    : Greek-COMMENTARY-PGS
  520. Language                                 : Greek
  521. Default                                  : No
  522. Forced                                   : No
  523. Text #25
  524. ID                                       : 34
  525. Format                                   : PGS
  526. Muxing mode                              : zlib
  527. Codec ID                                 : S_HDMV/PGS
  528. Codec ID/Info                            : Picture based subtitle format used on BDs/HD-DVDs
  529. Duration                                 : 1 h 59 min
  530. Bit rate                                 : 66.0 kb/s
  531. Count of elements                        : 3206
  532. Stream size                              : 56.3 MiB (0%)
  533. Title                                    : Russian-COMMENTARY-PGS
  534. Language                                 : Russian
  535. Default                                  : No
  536. Forced                                   : No
  537. Text #26
  538. ID                                       : 35
  539. Format                                   : PGS
  540. Muxing mode                              : zlib
  541. Codec ID                                 : S_HDMV/PGS
  542. Codec ID/Info                            : Picture based subtitle format used on BDs/HD-DVDs
  543. Duration                                 : 1 h 51 min
  544. Bit rate                                 : 64.2 kb/s
  545. Count of elements                        : 4041
  546. Stream size                              : 51.4 MiB (0%)
  547. Title                                    : English-COMMENTARY-PGS
  548. Language                                 : English
  549. Default                                  : No
  550. Forced                                   : No
  551. Text #27
  552. ID                                       : 36
  553. Format                                   : PGS
  554. Muxing mode                              : zlib
  555. Codec ID                                 : S_HDMV/PGS
  556. Codec ID/Info                            : Picture based subtitle format used on BDs/HD-DVDs
  557. Duration                                 : 1 h 59 min
  558. Bit rate                                 : 55.7 kb/s
  559. Count of elements                        : 4055
  560. Stream size                              : 47.5 MiB (0%)
  561. Title                                    : French-COMMENTARY-PGS
  562. Language                                 : French
  563. Default                                  : No
  564. Forced                                   : No
  565. Menu
  566. 00:00:00.000                             : en:Chapter 01
  567. 00:06:57.667                             : en:Chapter 02
  568. 00:11:47.164                             : en:Chapter 03
  569. 00:17:44.813                             : en:Chapter 04
  570. 00:26:34.593                             : en:Chapter 05
  571. 00:29:55.960                             : en:Chapter 06
  572. 00:34:44.290                             : en:Chapter 07
  573. 00:38:32.601                             : en:Chapter 08
  574. 00:44:26.372                             : en:Chapter 09
  575. 00:48:20.105                             : en:Chapter 10
  576. 00:55:05.260                             : en:Chapter 11
  577. 00:59:13.424                             : en:Chapter 12
  578. 01:05:36.432                             : en:Chapter 13
  579. 01:12:55.871                             : en:Chapter 14
  580. 01:16:08.063                             : en:Chapter 15
  581. 01:21:57.871                             : en:Chapter 16
  582. 01:26:17.297                             : en:Chapter 17
  583. 01:35:32.226                             : en:Chapter 18
  584. 01:42:06.453                             : en:Chapter 19
  585. 01:51:51.913                             : en:Chapter 20
复制代码






                                       
                                       

                                       
                                       
                                       




回复

使用道具 举报

懒得打字嘛,点击右侧快捷回复 【右侧内容,后台自定义】
您需要登录后才可以回帖 登录 | 立即加入

本版积分规则

Archiver|小黑屋| 蓝光电影网 |网站地图

Copyright © 2021 Comsenz Inc. Powered by 蓝光电影网

蓝光电影网

本站内容由用户自主分享和转载自互联网,转载目的在于传递更多信息,并不代表本网赞同其观点和对其真实性负责。

如有侵权、违反国家法律政策行为,请联系我们,我们会第一时间及时清除和处理!

举报反馈邮箱:[email protected]

快速回复 返回顶部 返回列表