找回密码

蓝光电影网

查看: 9|回复: 0

[2160p] 地狱男爵:血皇后崛起 Hellboy.2019.2160p.UHD.BluRay.X265.10bit.HDR.TrueHD.7.1.Atmos-TERMiNAL 14.94GB

[复制链接]
蓝光币
382
发表于 2019-7-28 12:36:20 | 显示全部楼层 |阅读模式


◎译  名 天堂男爵:血皇后突起 / Hellboy - Call of Darkness / Hellboy: Rise of the Blood Queen / 天堂怪客:血后的突起(台)
◎片  名 Hellboy
◎年  代 2019
◎产  地 美国
◎类  别 行动 / 奇异 / 冒险
◎语  言 英语
◎上映日期 2019-04-12(美国)
◎IMDb评分  5.3/10 from 22655 users
◎IMDb链接  http://www.imdb.com/title/tt2274648
◎豆瓣评分 6.1/10 from 4880 users
◎豆瓣链接 https://movie.douban.com/subject/24750460/
◎片  长 120分钟
◎导  演 尼尔·马歇尔 Neil Marshall
◎编  剧 安德鲁·考斯比 Andrew Cosby / 迈克·米格诺拉 Mike Mignola
◎主  演 大卫·哈伯 David Harbour
      米拉·乔沃维奇 Milla Jovovich
      金大贤 Daniel Dae Kim
      伊恩·麦柯肖恩 Ian McShane
      阿利斯泰·皮垂 Alistair Petrie
      萨莎·莱恩 Sasha Lane
      托马斯·哈登·丘奇 Thomas Haden Church
      佩内洛普·米契尔 Penelope Mitchell
      苏菲·奥康内多 Sophie Okonedo
      布莱恩·格里森 Brian Gleeson
      克里斯蒂娜·克莱伯 Kristina Klebe
      阿什丽·艾德纳 Ashley Edner
      道格拉斯·泰特 Douglas Tait
      贝恩·科拉科 Bern Colla?o
      阿塔纳斯·斯雷布雷夫 Atanas Srebrev
      凡妮莎·艾科尔兹 Vanessa Eichholz
      莱拉·莫尔斯 Laila Morse

◎标  签 奇异 | 美国 | 漫画改编 | 2019 | 天堂男爵 | 行动 | 科幻 | 漫画豪杰
◎简  介  
  天堂男爵是二战时代被纳粹呼唤到人世的恶魔之子,在被布鲁姆教授收养长大后逐步学会了融入人类天下,成为了一位超自然气力观察员,但是一路关于末世的预言,令他堕入重重危机。与此同时,史上最强大的邪恶女巫血皇后正诡计打破封印重返人世,并让瘟疫囊括地球。天堂男爵与通灵少女爱丽丝以及上校本·戴米奥,是以配合踏上了阻止血皇后的征程。
  1. Video
  2. ID                                       : 1
  3. Format                                   : HEVC
  4. Format/Info                              : High Efficiency Video Coding
  5. Format profile                           : Main [email protected]@High
  6. HDR format                               : SMPTE ST 2086, HDR10 compatible
  7. Codec ID                                 : V_MPEGH/ISO/HEVC
  8. Duration                                 : 2 h 1 min
  9. Bit rate                                 : 11.6 Mb/s
  10. Width                                    : 3 840 pixels
  11. Height                                   : 1 608 pixels
  12. Display aspect ratio                     : 2.40:1
  13. Frame rate mode                          : Constant
  14. Frame rate                               : 23.976 (24000/1001) FPS
  15. Color space                              : YUV
  16. Chroma subsampling                       : 4:2:0 (Type 2)
  17. Bit depth                                : 10 bits
  18. Bits/(Pixel*Frame)                       : 0.078
  19. Stream size                              : 9.81 GiB (66%)
  20. Writing library                          : x265 3.1147fb92c5ed5:[Windows][GCC 6.3.0][64 bit] 10bit
  21. Encoding settings                        : cpuid=1176575 / frame-threads=5 / numa-pools=36 / wpp / no-pmode / no-pme / no-psnr / no-ssim / log-level=2 / input-csp=1 / input-res=3840x1608 / interlace=0 / total-frames=174120 / level-idc=51 / high-tier=1 / uhd-bd=0 / ref=4 / no-allow-non-conformance / repeat-headers / annexb / aud / hrd / info / hash=0 / no-temporal-layers / no-open-gop / min-keyint=1 / keyint=24 / gop-lookahead=0 / bframes=4 / b-adapt=2 / b-pyramid / bframe-bias=0 / rc-lookahead=25 / lookahead-slices=4 / scenecut=40 / radl=0 / no-splice / no-intra-refresh / ctu=64 / min-cu-size=8 / rect / no-amp / max-tu-size=32 / tu-inter-depth=1 / tu-intra-depth=1 / limit-tu=0 / rdoq-level=2 / dynamic-rd=0.00 / no-ssim-rd / signhide / no-tskip / nr-intra=0 / nr-inter=0 / no-constrained-intra / no-strong-intra-smoothing / max-merge=3 / limit-refs=3 / limit-modes / me=3 / subme=3 / merange=57 / temporal-mvp / no-hme / weightp / no-weightb / no-analyze-src-pics / deblock=-3:-3 / no-sao / no-sao-non-deblock / rd=4 / no-early-skip / rskip / no-fast-intra / no-tskip-fast / no-cu-lossless / no-b-intra / no-splitrd-skip / rdpenalty=0 / psy-rd=2.00 / psy-rdoq=1.00 / no-rd-refine / no-lossless / cbqpoffs=0 / crqpoffs=0 / rc=crf / crf=17.0 / qcomp=0.60 / qpstep=4 / stats-write=0 / stats-read=0 / vbv-maxrate=160000 / vbv-bufsize=160000 / vbv-init=0.9 / crf-max=0.0 / crf-min=0.0 / ipratio=1.40 / pbratio=1.30 / aq-mode=2 / aq-strength=1.00 / cutree / zone-count=0 / no-strict-cbr / qg-size=32 / no-rc-grain / qpmax=69 / qpmin=0 / no-const-vbv / sar=1 / overscan=0 / videoformat=5 / range=0 / colorprim=9 / transfer=16 / colormatrix=9 / chromaloc=1 / chromaloc-top=2 / chromaloc-bottom=2 / display-window=0 / master-display=G(13250,34500)B(7500,3000)R(34000,16000)WP(15635,16450)L(40000000,1)cll=3947,542 / min-luma=0 / max-luma=1023 / log2-max-poc-lsb=8 / vui-timing-info / vui-hrd-info / slices=1 / no-opt-qp-pps / no-opt-ref-list-length-pps / no-multi-pass-opt-rps / scenecut-bias=0.05 / no-opt-cu-delta-qp / no-aq-motion / hdr / hdr-opt / no-dhdr10-opt / no-idr-recovery-sei / analysis-reuse-level=5 / scale-factor=0 / refine-intra=0 / refine-inter=0 / refine-mv=0 / refine-ctu-distortion=0 / no-limit-sao / ctu-info=0 / no-lowpass-dct / refine-analysis-type=0 / copy-pic=1 / max-ausize-factor=1.0 / no-dynamic-refine / no-single-sei / no-hevc-aq / no-svt / no-field / qp-adaptation-range=1.00
  22. Default                                  : Yes
  23. Forced                                   : No
  24. Color range                              : Limited
  25. Color primaries                          : BT.2020
  26. Transfer characteristics                 : PQ
  27. Matrix coefficients                      : BT.2020 non-constant
  28. Mastering display color primaries        : Display P3
  29. Mastering display luminance              : min: 0.0001 cd/m2, max: 4000 cd/m2
  30. Maximum Content Light Level              : 3947 cd/m2
  31. Maximum Frame-Average Light Level        : 542 cd/m2
  32. Audio #1
  33. ID                                       : 2
  34. Format                                   : MLP FBA 16-ch
  35. Format/Info                              : Meridian Lossless Packing FBA with 16-channel presentation
  36. Commercial name                          : Dolby TrueHD with Dolby Atmos
  37. Codec ID                                 : A_TRUEHD
  38. Duration                                 : 2 h 1 min
  39. Bit rate mode                            : Variable
  40. Bit rate                                 : 5 255 kb/s
  41. Maximum bit rate                         : 9 408 kb/s
  42. Channel(s)                               : 8 channels
  43. Channel layout                           : L R C LFE Ls Rs Lb Rb
  44. Sampling rate                            : 48.0 kHz
  45. Frame rate                               : 1 200.000 FPS (40 SPF)
  46. Compression mode                         : Lossless
  47. Stream size                              : 4.44 GiB (30%)
  48. Language                                 : English
  49. Default                                  : Yes
  50. Forced                                   : No
  51. Number of dynamic objects                : 15
  52. Bed channel count                        : 1 channel
  53. Bed channel configuration                : LFE
  54. Audio #2
  55. ID                                       : 3
  56. Format                                   : AC-3
  57. Format/Info                              : Audio Coding 3
  58. Commercial name                          : Dolby Digital
  59. Codec ID                                 : A_AC3
  60. Duration                                 : 2 h 1 min
  61. Bit rate mode                            : Constant
  62. Bit rate                                 : 448 kb/s
  63. Channel(s)                               : 6 channels
  64. Channel layout                           : L R C LFE Ls Rs
  65. Sampling rate                            : 48.0 kHz
  66. Frame rate                               : 31.250 FPS (1536 SPF)
  67. Bit depth                                : 16 bits
  68. Compression mode                         : Lossy
  69. Stream size                              : 388 MiB (3%)
  70. Language                                 : English
  71. Service kind                             : Complete Main
  72. Default                                  : No
  73. Forced                                   : No
  74. Text #1
  75. ID                                       : 4
  76. Format                                   : PGS
  77. Muxing mode                              : zlib
  78. Codec ID                                 : S_HDMV/PGS
  79. Codec ID/Info                            : Picture based subtitle format used on BDs/HD-DVDs
  80. Duration                                 : 2 h 0 min
  81. Bit rate                                 : 36.1 kb/s
  82. Count of elements                        : 2726
  83. Stream size                              : 31.1 MiB (0%)
  84. Title                                    : English
  85. Language                                 : English
  86. Default                                  : No
  87. Forced                                   : No
  88. Text #2
  89. ID                                       : 5
  90. Format                                   : PGS
  91. Muxing mode                              : zlib
  92. Codec ID                                 : S_HDMV/PGS
  93. Codec ID/Info                            : Picture based subtitle format used on BDs/HD-DVDs
  94. Duration                                 : 2 h 0 min
  95. Bit rate                                 : 43.2 kb/s
  96. Count of elements                        : 3464
  97. Stream size                              : 37.2 MiB (0%)
  98. Title                                    : English SDH
  99. Language                                 : English
  100. Default                                  : No
  101. Forced                                   : No
  102. Text #3
  103. ID                                       : 6
  104. Format                                   : PGS
  105. Muxing mode                              : zlib
  106. Codec ID                                 : S_HDMV/PGS
  107. Codec ID/Info                            : Picture based subtitle format used on BDs/HD-DVDs
  108. Duration                                 : 2 h 0 min
  109. Bit rate                                 : 34.1 kb/s
  110. Count of elements                        : 2600
  111. Stream size                              : 29.4 MiB (0%)
  112. Title                                    : Spanish
  113. Language                                 : Spanish
  114. Default                                  : No
  115. Forced                                   : No
  116. Text #4
  117. ID                                       : 7
  118. Format                                   : PGS
  119. Muxing mode                              : zlib
  120. Codec ID                                 : S_HDMV/PGS
  121. Codec ID/Info                            : Picture based subtitle format used on BDs/HD-DVDs
  122. Duration                                 : 1 h 45 min
  123. Bit rate                                 : 577 b/s
  124. Count of elements                        : 54
  125. Stream size                              : 444 KiB (0%)
  126. Title                                    : French 1
  127. Language                                 : French
  128. Default                                  : No
  129. Forced                                   : No
  130. Text #5
  131. ID                                       : 8
  132. Format                                   : PGS
  133. Muxing mode                              : zlib
  134. Codec ID                                 : S_HDMV/PGS
  135. Codec ID/Info                            : Picture based subtitle format used on BDs/HD-DVDs
  136. Duration                                 : 2 h 0 min
  137. Bit rate                                 : 41.5 kb/s
  138. Count of elements                        : 3772
  139. Stream size                              : 35.9 MiB (0%)
  140. Title                                    : French 2
  141. Language                                 : French
  142. Default                                  : No
  143. Forced                                   : No
复制代码






                                       
                                       

                                       
                                       
                                       




回复

使用道具 举报

懒得打字嘛,点击右侧快捷回复 【右侧内容,后台自定义】
您需要登录后才可以回帖 登录 | 立即加入

本版积分规则

Archiver|小黑屋| 蓝光电影网 |网站地图

Copyright © 2021 Comsenz Inc. Powered by 蓝光电影网

蓝光电影网

本站内容由用户自主分享和转载自互联网,转载目的在于传递更多信息,并不代表本网赞同其观点和对其真实性负责。

如有侵权、违反国家法律政策行为,请联系我们,我们会第一时间及时清除和处理!

举报反馈邮箱:[email protected]

快速回复 返回顶部 返回列表