找回密码

蓝光电影网

查看: 10|回复: 0

[2160p] 地狱男爵:血皇后崛起 Hellboy.2019.INTERNAL.HDR.2160p.WEB.X265-DEFLATE 11.89GB

[复制链接]
蓝光币
382
发表于 2019-7-21 06:47:58 | 显示全部楼层 |阅读模式


◎译  名 天堂男爵:血皇后突起 / Hellboy - Call of Darkness / Hellboy: Rise of the Blood Queen / 天堂怪客:血后的突起(台)
◎片  名 Hellboy
◎年  代 2019
◎产  地 美国
◎类  别 行动 / 奇异 / 冒险
◎语  言 英语
◎上映日期 2019-04-12(美国)
◎IMDb评分  5.3/10 from 22655 users
◎IMDb链接  http://www.imdb.com/title/tt2274648
◎豆瓣评分 6.1/10 from 4880 users
◎豆瓣链接 https://movie.douban.com/subject/24750460/
◎片  长 120分钟
◎导  演 尼尔·马歇尔 Neil Marshall
◎编  剧 安德鲁·考斯比 Andrew Cosby / 迈克·米格诺拉 Mike Mignola
◎主  演 大卫·哈伯 David Harbour
      米拉·乔沃维奇 Milla Jovovich
      金大贤 Daniel Dae Kim
      伊恩·麦柯肖恩 Ian McShane
      阿利斯泰·皮垂 Alistair Petrie
      萨莎·莱恩 Sasha Lane
      托马斯·哈登·丘奇 Thomas Haden Church
      佩内洛普·米契尔 Penelope Mitchell
      苏菲·奥康内多 Sophie Okonedo
      布莱恩·格里森 Brian Gleeson
      克里斯蒂娜·克莱伯 Kristina Klebe
      阿什丽·艾德纳 Ashley Edner
      道格拉斯·泰特 Douglas Tait
      贝恩·科拉科 Bern Colla?o
      阿塔纳斯·斯雷布雷夫 Atanas Srebrev
      凡妮莎·艾科尔兹 Vanessa Eichholz
      莱拉·莫尔斯 Laila Morse

◎标  签 奇异 | 美国 | 漫画改编 | 2019 | 天堂男爵 | 行动 | 科幻 | 漫画豪杰
◎简  介  
  天堂男爵是二战时代被纳粹呼唤到人世的恶魔之子,在被布鲁姆教授收养长大后逐步学会了融入人类天下,成为了一位超自然气力观察员,但是一路关于末世的预言,令他堕入重重危机。与此同时,史上最强大的邪恶女巫血皇后正诡计打破封印重返人世,并让瘟疫囊括地球。天堂男爵与通灵少女爱丽丝以及上校本·戴米奥,是以配合踏上了阻止血皇后的征程。
  1. Video
  2. ID                                       : 1
  3. Format                                   : HEVC
  4. Format/Info                              : High Efficiency Video Coding
  5. Commercial name                          : HDR10
  6. Format profile                           : Main [email protected]@High
  7. Codec ID                                 : V_MPEGH/ISO/HEVC
  8. Duration                                 : 2 h 1 min
  9. Bit rate                                 : 13.0 Mb/s
  10. Width                                    : 3 840 pixels
  11. Height                                   : 1 608 pixels
  12. Original height                          : 2 160 pixels
  13. Display aspect ratio                     : 16:9
  14. Frame rate mode                          : Constant
  15. Frame rate                               : 23.976 (23976/1000) FPS
  16. Color space                              : YUV
  17. Chroma subsampling                       : 4:2:0 (Type 2)
  18. Bit depth                                : 10 bits
  19. Bits/(Pixel*Frame)                       : 0.088
  20. Stream size                              : 11.0 GiB (93%)
  21. Writing library                          : x265 3.0:[Linux][GCC 4.8.3][64 bit] 10bit
  22. Encoding settings                        : cpuid=1111039 / frame-threads=1 / wpp / no-pmode / no-pme / no-psnr / no-ssim / log-level=2 / input-csp=1 / input-res=3840x2160 / interlace=0 / total-frames=0 / level-idc=50 / high-tier=1 / uhd-bd=0 / ref=4 / no-allow-non-conformance / repeat-headers / annexb / aud / hrd / info / hash=0 / no-temporal-layers / no-open-gop / min-keyint=96 / keyint=96 / gop-lookahead=0 / bframes=8 / b-adapt=2 / b-pyramid / bframe-bias=0 / rc-lookahead=25 / lookahead-slices=1 / scenecut=40 / radl=0 / no-splice / no-intra-refresh / ctu=64 / min-cu-size=8 / rect / no-amp / max-tu-size=32 / tu-inter-depth=1 / tu-intra-depth=1 / limit-tu=0 / rdoq-level=2 / dynamic-rd=0.00 / no-ssim-rd / signhide / no-tskip / nr-intra=0 / nr-inter=0 / no-constrained-intra / strong-intra-smoothing / max-merge=3 / limit-refs=3 / limit-modes / me=3 / subme=3 / merange=57 / temporal-mvp / weightp / no-weightb / no-analyze-src-pics / deblock=0:0 / sao / no-sao-non-deblock / rd=4 / no-early-skip / rskip / no-fast-intra / no-tskip-fast / no-cu-lossless / no-b-intra / no-splitrd-skip / rdpenalty=0 / psy-rd=2.00 / psy-rdoq=1.00 / no-rd-refine / no-lossless / cbqpoffs=0 / crqpoffs=0 / rc=abr / bitrate=13446 / qcomp=0.60 / qpstep=4 / stats-write=1 / stats-read=2 / cplxblur=20.0 / qblur=0.5 / vbv-maxrate=16135 / vbv-bufsize=40338 / vbv-init=0.9 / ipratio=1.40 / pbratio=1.30 / aq-mode=2 / aq-strength=1.00 / cutree / zone-count=0 / no-strict-cbr / qg-size=32 / no-rc-grain / qpmax=69 / qpmin=0 / no-const-vbv / sar=1 / overscan=0 / videoformat=5 / range=0 / colorprim=9 / transfer=16 / colormatrix=9 / chromaloc=1 / chromaloc-top=2 / chromaloc-bottom=2 / display-window=0 / master-display=G(13250,34500)B(7500,3000)R(34000,16000)WP(15635,16450)L(40000000,50) / max-cll=0,0 / min-luma=0 / max-luma=1023 / log2-max-poc-lsb=8 / vui-timing-info / vui-hrd-info / slices=1 / no-opt-qp-pps / no-opt-ref-list-length-pps / no-multi-pass-opt-rps / scenecut-bias=0.05 / no-opt-cu-delta-qp / no-aq-motion / hdr / hdr-opt / no-dhdr10-opt / no-idr-recovery-sei / analysis-reuse-level=5 / scale-factor=0 / refine-intra=0 / refine-inter=0 / refine-mv=0 / refine-ctu-distortion=0 / no-limit-sao / ctu-info=0 / no-lowpass-dct / refine-analysis-type=0 / copy-pic=1 / max-ausize-factor=1.0 / no-dynamic-refine / no-single-sei / no-hevc-aq / qp-adaptation-range=1.00
  23. Language                                 : English
  24. Default                                  : Yes
  25. Forced                                   : No
  26. Color range                              : Limited
  27. Color primaries                          : BT.2020
  28. Transfer characteristics                 : PQ
  29. Matrix coefficients                      : BT.2020 non-constant
  30. Mastering display color primaries        : Display P3
  31. Mastering display luminance              : min: 0.0050 cd/m2, max: 4000 cd/m2
  32. Audio
  33. ID                                       : 2
  34. Format                                   : E-AC-3
  35. Format/Info                              : Enhanced AC-3
  36. Commercial name                          : Dolby Digital Plus
  37. Codec ID                                 : A_EAC3
  38. Duration                                 : 2 h 1 min
  39. Bit rate mode                            : Constant
  40. Bit rate                                 : 640 kb/s
  41. Channel(s)                               : 6 channels
  42. Channel layout                           : L R C LFE Ls Rs
  43. Sampling rate                            : 48.0 kHz
  44. Frame rate                               : 31.250 FPS (1536 SPF)
  45. Compression mode                         : Lossy
  46. Stream size                              : 554 MiB (5%)
  47. Language                                 : English
  48. Service kind                             : Complete Main
  49. Default                                  : Yes
  50. Forced                                   : No
  51. Text #1
  52. ID                                       : 3
  53. Format                                   : UTF-8
  54. Codec ID                                 : S_TEXT/UTF8
  55. Codec ID/Info                            : UTF-8 Plain Text
  56. Title                                    : English
  57. Language                                 : English
  58. Default                                  : No
  59. Forced                                   : No
  60. Text #2
  61. ID                                       : 4
  62. Format                                   : UTF-8
  63. Codec ID                                 : S_TEXT/UTF8
  64. Codec ID/Info                            : UTF-8 Plain Text
  65. Title                                    : English (SDH)
  66. Language                                 : English
  67. Default                                  : No
  68. Forced                                   : No
复制代码






                                       
                                       

                                       
                                       
                                       




回复

使用道具 举报

懒得打字嘛,点击右侧快捷回复 【右侧内容,后台自定义】
您需要登录后才可以回帖 登录 | 立即加入

本版积分规则

Archiver|小黑屋| 蓝光电影网 |网站地图

Copyright © 2021 Comsenz Inc. Powered by 蓝光电影网

蓝光电影网

本站内容由用户自主分享和转载自互联网,转载目的在于传递更多信息,并不代表本网赞同其观点和对其真实性负责。

如有侵权、违反国家法律政策行为,请联系我们,我们会第一时间及时清除和处理!

举报反馈邮箱:[email protected]

快速回复 返回顶部 返回列表