找回密码

蓝光电影网

查看: 6|回复: 0

[UHD.HEVC] 哥斯拉/怪兽哥斯拉 Godzilla.1998.2160p.BluRay.REMUX.HEVC.DTS-HD.MA.TrueHD.7.1.Atmos-FGT 72.34GB

[复制链接]
蓝光币
426
发表于 2019-5-22 18:55:36 | 显示全部楼层 |阅读模式




◎译  名 哥斯拉 / 怪兽哥斯拉 / 酷斯拉
◎片  名 Godzilla
◎年  代 1998
◎产  地 美国 / 日本
◎类  别 行动 / 科幻 / 冒险 / 灾难
◎语  言 英语 / 法语 / 日语 / 俄语 / 西班牙语
◎上映日期 1998-05-20
◎IMDb评分  5.3/10 from 170086 users
◎IMDb链接  http://www.imdb.com/title/tt0120685
◎豆瓣评分 7.0/10 from 52824 users
◎豆瓣链接 https://movie.douban.com/subject/1295292/
◎片  长 139 分钟
◎导  演 Roland Emmerich
◎编  剧 Dean Devlin / Roland Emmerich
◎主  演 Matthew Broderick
      Jean Reno
      Maria Pitillo
      Hank Azaria
      Kevin Dunn

◎标  签 科幻 | 灾难 | 美国 | 哥斯拉 | 美国电影 | 1998 | 行动 | 电影
◎简  介  
  此日,美国纽约四周出现了一些异常现象:承平洋上的海浪速度超乎平常地惊人、巴哈马庞大的原始森林里居然出现了一个类似恐龙脚印的庞大痕迹、动物们都惊慌失措,恍如一股庞大的气力正向纽约囊括而来。
本来,天下上频仍的核实验引发的核辐射致使了天气异常和终极致使岛上蜥蜴变异。现在,它正以越来越快的步伐向纽约逼近。这下,一切的人都慌了神,美国全国的一切气力都结合了起来,目标只要一个,就是在它踏入纽约前将它干掉!
◎获奖情况  
  第26届动画安妮奖(1998)
  最好动画结果(提名) 杰罗姆·陈

  1. Video
  2. ID                                       : 1
  3. Format                                   : HEVC
  4. Format/Info                              : High Efficiency Video Coding
  5. Commercial name                          : HDR10
  6. Format profile                           : Main [email protected]@High
  7. Codec ID                                 : V_MPEGH/ISO/HEVC
  8. Duration                                 : 2 h 18 min
  9. Bit rate                                 : 50.0 Mb/s
  10. Width                                    : 3 840 pixels
  11. Height                                   : 2 160 pixels
  12. Display aspect ratio                     : 16:9
  13. Frame rate mode                          : Constant
  14. Frame rate                               : 23.976 (24000/1001) FPS
  15. Color space                              : YUV
  16. Chroma subsampling                       : 4:2:0 (Type 2)
  17. Bit depth                                : 10 bits
  18. Bits/(Pixel*Frame)                       : 0.252
  19. Stream size                              : 48.5 GiB (67%)
  20. Title                                    : Godzilla.1998.2160p.BluRay.REMUX.HEVC.DTS-HD.MA.TrueHD.7.1.Atmos-FGT
  21. Language                                 : English
  22. Default                                  : No
  23. Forced                                   : No
  24. Color range                              : Limited
  25. Color primaries                          : BT.2020
  26. Transfer characteristics                 : PQ
  27. Matrix coefficients                      : BT.2020 non-constant
  28. Mastering display color primaries        : Display P3
  29. Mastering display luminance              : min: 0.0050 cd/m2, max: 4000 cd/m2
  30. Maximum Content Light Level              : 10000 cd/m2
  31. Maximum Frame-Average Light Level        : 768 cd/m2
  32. Audio #1
  33. ID                                       : 2
  34. Format                                   : MLP FBA 16-ch
  35. Format/Info                              : Meridian Lossless Packing FBA with 16-channel presentation
  36. Commercial name                          : Dolby TrueHD with Dolby Atmos
  37. Codec ID                                 : A_TRUEHD
  38. Duration                                 : 2 h 18 min
  39. Bit rate mode                            : Variable
  40. Bit rate                                 : 4 138 kb/s
  41. Maximum bit rate                         : 6 384 kb/s
  42. Channel(s)                               : 8 channels
  43. Channel layout                           : L R C LFE Ls Rs Lb Rb
  44. Sampling rate                            : 48.0 kHz
  45. Frame rate                               : 1 200.000 FPS (40 SPF)
  46. Compression mode                         : Lossless
  47. Stream size                              : 4.01 GiB (6%)
  48. Title                                    : Godzilla.1998.2160p.BluRay.REMUX.HEVC.DTS-HD.MA.TrueHD.7.1.Atmos-FGT
  49. Language                                 : English
  50. Default                                  : Yes
  51. Forced                                   : No
  52. Number of dynamic objects                : 11
  53. Bed channel count                        : 1 channel
  54. Bed channel configuration                : LFE
  55. Audio #2
  56. ID                                       : 3
  57. Format                                   : DTS XLL
  58. Format/Info                              : Digital Theater Systems
  59. Commercial name                          : DTS-HD Master Audio
  60. Codec ID                                 : A_DTS
  61. Duration                                 : 2 h 18 min
  62. Bit rate mode                            : Variable
  63. Bit rate                                 : 4 171 kb/s
  64. Channel(s)                               : 8 channels
  65. Channel layout                           : C L R LFE Lb Rb Lss Rss
  66. Sampling rate                            : 48.0 kHz
  67. Frame rate                               : 93.750 FPS (512 SPF)
  68. Bit depth                                : 24 bits
  69. Compression mode                         : Lossless
  70. Stream size                              : 4.04 GiB (6%)
  71. Title                                    : Godzilla.1998.2160p.BluRay.REMUX.HEVC.DTS-HD.MA.TrueHD.7.1.Atmos-FGT
  72. Language                                 : English
  73. Default                                  : No
  74. Forced                                   : No
  75. Audio #3
  76. ID                                       : 4
  77. Format                                   : AC-3
  78. Format/Info                              : Audio Coding 3
  79. Commercial name                          : Dolby Digital
  80. Codec ID                                 : A_AC3
  81. Duration                                 : 2 h 18 min
  82. Bit rate mode                            : Constant
  83. Bit rate                                 : 640 kb/s
  84. Channel(s)                               : 6 channels
  85. Channel layout                           : L R C LFE Ls Rs
  86. Sampling rate                            : 48.0 kHz
  87. Frame rate                               : 31.250 FPS (1536 SPF)
  88. Bit depth                                : 16 bits
  89. Compression mode                         : Lossy
  90. Stream size                              : 635 MiB (1%)
  91. Title                                    : Godzilla.1998.2160p.BluRay.REMUX.HEVC.DTS-HD.MA.TrueHD.7.1.Atmos-FGT
  92. Language                                 : English
  93. Service kind                             : Complete Main
  94. Default                                  : No
  95. Forced                                   : No
  96. Audio #4
  97. ID                                       : 5
  98. Format                                   : AC-3
  99. Format/Info                              : Audio Coding 3
  100. Commercial name                          : Dolby Digital
  101. Codec ID                                 : A_AC3
  102. Duration                                 : 2 h 18 min
  103. Bit rate mode                            : Constant
  104. Bit rate                                 : 640 kb/s
  105. Channel(s)                               : 6 channels
  106. Channel layout                           : L R C LFE Ls Rs
  107. Sampling rate                            : 48.0 kHz
  108. Frame rate                               : 31.250 FPS (1536 SPF)
  109. Bit depth                                : 16 bits
  110. Compression mode                         : Lossy
  111. Stream size                              : 635 MiB (1%)
  112. Title                                    : Godzilla.1998.2160p.BluRay.REMUX.HEVC.DTS-HD.MA.TrueHD.7.1.Atmos-FGT
  113. Language                                 : Czech
  114. Service kind                             : Complete Main
  115. Default                                  : No
  116. Forced                                   : No
  117. Audio #5
  118. ID                                       : 6
  119. Format                                   : DTS XLL
  120. Format/Info                              : Digital Theater Systems
  121. Commercial name                          : DTS-HD Master Audio
  122. Codec ID                                 : A_DTS
  123. Duration                                 : 2 h 18 min
  124. Bit rate mode                            : Variable
  125. Bit rate                                 : 2 563 kb/s
  126. Channel(s)                               : 6 channels
  127. Channel layout                           : C L R Ls Rs LFE
  128. Sampling rate                            : 48.0 kHz
  129. Frame rate                               : 93.750 FPS (512 SPF)
  130. Bit depth                                : 16 bits
  131. Compression mode                         : Lossless
  132. Stream size                              : 2.48 GiB (3%)
  133. Title                                    : Godzilla.1998.2160p.BluRay.REMUX.HEVC.DTS-HD.MA.TrueHD.7.1.Atmos-FGT
  134. Language                                 : French
  135. Default                                  : No
  136. Forced                                   : No
  137. Audio #6
  138. ID                                       : 7
  139. Format                                   : AC-3
  140. Format/Info                              : Audio Coding 3
  141. Commercial name                          : Dolby Digital
  142. Codec ID                                 : A_AC3
  143. Duration                                 : 2 h 18 min
  144. Bit rate mode                            : Constant
  145. Bit rate                                 : 640 kb/s
  146. Channel(s)                               : 6 channels
  147. Channel layout                           : L R C LFE Ls Rs
  148. Sampling rate                            : 48.0 kHz
  149. Frame rate                               : 31.250 FPS (1536 SPF)
  150. Bit depth                                : 16 bits
  151. Compression mode                         : Lossy
  152. Stream size                              : 635 MiB (1%)
  153. Title                                    : Godzilla.1998.2160p.BluRay.REMUX.HEVC.DTS-HD.MA.TrueHD.7.1.Atmos-FGT
  154. Language                                 : French
  155. Service kind                             : Complete Main
  156. Default                                  : No
  157. Forced                                   : No
  158. Audio #7
  159. ID                                       : 8
  160. Format                                   : DTS XLL
  161. Format/Info                              : Digital Theater Systems
  162. Commercial name                          : DTS-HD Master Audio
  163. Codec ID                                 : A_DTS
  164. Duration                                 : 2 h 18 min
  165. Bit rate mode                            : Variable
  166. Bit rate                                 : 2 590 kb/s
  167. Channel(s)                               : 6 channels
  168. Channel layout                           : C L R Ls Rs LFE
  169. Sampling rate                            : 48.0 kHz
  170. Frame rate                               : 93.750 FPS (512 SPF)
  171. Bit depth                                : 16 bits
  172. Compression mode                         : Lossless
  173. Stream size                              : 2.51 GiB (3%)
  174. Title                                    : Godzilla.1998.2160p.BluRay.REMUX.HEVC.DTS-HD.MA.TrueHD.7.1.Atmos-FGT
  175. Language                                 : German
  176. Default                                  : No
  177. Forced                                   : No
  178. Audio #8
  179. ID                                       : 9
  180. Format                                   : AC-3
  181. Format/Info                              : Audio Coding 3
  182. Commercial name                          : Dolby Digital
  183. Codec ID                                 : A_AC3
  184. Duration                                 : 2 h 18 min
  185. Bit rate mode                            : Constant
  186. Bit rate                                 : 640 kb/s
  187. Channel(s)                               : 6 channels
  188. Channel layout                           : L R C LFE Ls Rs
  189. Sampling rate                            : 48.0 kHz
  190. Frame rate                               : 31.250 FPS (1536 SPF)
  191. Bit depth                                : 16 bits
  192. Compression mode                         : Lossy
  193. Stream size                              : 635 MiB (1%)
  194. Title                                    : Godzilla.1998.2160p.BluRay.REMUX.HEVC.DTS-HD.MA.TrueHD.7.1.Atmos-FGT
  195. Language                                 : Hindi
  196. Service kind                             : Complete Main
  197. Default                                  : No
  198. Forced                                   : No
  199. Audio #9
  200. ID                                       : 10
  201. Format                                   : AC-3
  202. Format/Info                              : Audio Coding 3
  203. Commercial name                          : Dolby Digital
  204. Codec ID                                 : A_AC3
  205. Duration                                 : 2 h 18 min
  206. Bit rate mode                            : Constant
  207. Bit rate                                 : 640 kb/s
  208. Channel(s)                               : 6 channels
  209. Channel layout                           : L R C LFE Ls Rs
  210. Sampling rate                            : 48.0 kHz
  211. Frame rate                               : 31.250 FPS (1536 SPF)
  212. Bit depth                                : 16 bits
  213. Compression mode                         : Lossy
  214. Stream size                              : 635 MiB (1%)
  215. Title                                    : Godzilla.1998.2160p.BluRay.REMUX.HEVC.DTS-HD.MA.TrueHD.7.1.Atmos-FGT
  216. Language                                 : Hungarian
  217. Service kind                             : Complete Main
  218. Default                                  : No
  219. Forced                                   : No
  220. Audio #10
  221. ID                                       : 11
  222. Format                                   : DTS XLL
  223. Format/Info                              : Digital Theater Systems
  224. Commercial name                          : DTS-HD Master Audio
  225. Codec ID                                 : A_DTS
  226. Duration                                 : 2 h 18 min
  227. Bit rate mode                            : Variable
  228. Bit rate                                 : 2 492 kb/s
  229. Channel(s)                               : 6 channels
  230. Channel layout                           : C L R Ls Rs LFE
  231. Sampling rate                            : 48.0 kHz
  232. Frame rate                               : 93.750 FPS (512 SPF)
  233. Bit depth                                : 16 bits
  234. Compression mode                         : Lossless
  235. Stream size                              : 2.41 GiB (3%)
  236. Title                                    : Godzilla.1998.2160p.BluRay.REMUX.HEVC.DTS-HD.MA.TrueHD.7.1.Atmos-FGT
  237. Language                                 : Italian
  238. Default                                  : No
  239. Forced                                   : No
  240. Audio #11
  241. ID                                       : 12
  242. Format                                   : AC-3
  243. Format/Info                              : Audio Coding 3
  244. Commercial name                          : Dolby Digital
  245. Codec ID                                 : A_AC3
  246. Duration                                 : 2 h 18 min
  247. Bit rate mode                            : Constant
  248. Bit rate                                 : 640 kb/s
  249. Channel(s)                               : 6 channels
  250. Channel layout                           : L R C LFE Ls Rs
  251. Sampling rate                            : 48.0 kHz
  252. Frame rate                               : 31.250 FPS (1536 SPF)
  253. Bit depth                                : 16 bits
  254. Compression mode                         : Lossy
  255. Stream size                              : 635 MiB (1%)
  256. Title                                    : Godzilla.1998.2160p.BluRay.REMUX.HEVC.DTS-HD.MA.TrueHD.7.1.Atmos-FGT
  257. Language                                 : Polish
  258. Service kind                             : Complete Main
  259. Default                                  : No
  260. Forced                                   : No
  261. Audio #12
  262. ID                                       : 13
  263. Format                                   : AC-3
  264. Format/Info                              : Audio Coding 3
  265. Commercial name                          : Dolby Digital
  266. Codec ID                                 : A_AC3
  267. Duration                                 : 2 h 18 min
  268. Bit rate mode                            : Constant
  269. Bit rate                                 : 640 kb/s
  270. Channel(s)                               : 6 channels
  271. Channel layout                           : L R C LFE Ls Rs
  272. Sampling rate                            : 48.0 kHz
  273. Frame rate                               : 31.250 FPS (1536 SPF)
  274. Bit depth                                : 16 bits
  275. Compression mode                         : Lossy
  276. Stream size                              : 635 MiB (1%)
  277. Title                                    : Godzilla.1998.2160p.BluRay.REMUX.HEVC.DTS-HD.MA.TrueHD.7.1.Atmos-FGT
  278. Language                                 : Portuguese
  279. Service kind                             : Complete Main
  280. Default                                  : No
  281. Forced                                   : No
  282. Audio #13
  283. ID                                       : 14
  284. Format                                   : AC-3
  285. Format/Info                              : Audio Coding 3
  286. Commercial name                          : Dolby Digital
  287. Codec ID                                 : A_AC3
  288. Duration                                 : 2 h 18 min
  289. Bit rate mode                            : Constant
  290. Bit rate                                 : 640 kb/s
  291. Channel(s)                               : 6 channels
  292. Channel layout                           : L R C LFE Ls Rs
  293. Sampling rate                            : 48.0 kHz
  294. Frame rate                               : 31.250 FPS (1536 SPF)
  295. Bit depth                                : 16 bits
  296. Compression mode                         : Lossy
  297. Stream size                              : 635 MiB (1%)
  298. Title                                    : Godzilla.1998.2160p.BluRay.REMUX.HEVC.DTS-HD.MA.TrueHD.7.1.Atmos-FGT
  299. Language                                 : Russian
  300. Service kind                             : Complete Main
  301. Default                                  : No
  302. Forced                                   : No
  303. Audio #14
  304. ID                                       : 15
  305. Format                                   : DTS XLL
  306. Format/Info                              : Digital Theater Systems
  307. Commercial name                          : DTS-HD Master Audio
  308. Codec ID                                 : A_DTS
  309. Duration                                 : 2 h 18 min
  310. Bit rate mode                            : Variable
  311. Bit rate                                 : 2 558 kb/s
  312. Channel(s)                               : 6 channels
  313. Channel layout                           : C L R Ls Rs LFE
  314. Sampling rate                            : 48.0 kHz
  315. Frame rate                               : 93.750 FPS (512 SPF)
  316. Bit depth                                : 16 bits
  317. Compression mode                         : Lossless
  318. Stream size                              : 2.48 GiB (3%)
  319. Title                                    : Godzilla.1998.2160p.BluRay.REMUX.HEVC.DTS-HD.MA.TrueHD.7.1.Atmos-FGT
  320. Language                                 : Spanish
  321. Default                                  : No
  322. Forced                                   : No
  323. Audio #15
  324. ID                                       : 16
  325. Format                                   : AC-3
  326. Format/Info                              : Audio Coding 3
  327. Commercial name                          : Dolby Digital
  328. Codec ID                                 : A_AC3
  329. Duration                                 : 2 h 18 min
  330. Bit rate mode                            : Constant
  331. Bit rate                                 : 640 kb/s
  332. Channel(s)                               : 6 channels
  333. Channel layout                           : L R C LFE Ls Rs
  334. Sampling rate                            : 48.0 kHz
  335. Frame rate                               : 31.250 FPS (1536 SPF)
  336. Bit depth                                : 16 bits
  337. Compression mode                         : Lossy
  338. Stream size                              : 635 MiB (1%)
  339. Title                                    : Godzilla.1998.2160p.BluRay.REMUX.HEVC.DTS-HD.MA.TrueHD.7.1.Atmos-FGT
  340. Language                                 : Spanish
  341. Service kind                             : Complete Main
  342. Default                                  : No
  343. Forced                                   : No
  344. Text #1
  345. ID                                       : 17
  346. Format                                   : UTF-8
  347. Codec ID                                 : S_TEXT/UTF8
  348. Codec ID/Info                            : UTF-8 Plain Text
  349. Duration                                 : 2 h 12 min
  350. Bit rate                                 : 48 b/s
  351. Count of elements                        : 1322
  352. Stream size                              : 47.3 KiB (0%)
  353. Title                                    : English-SRT
  354. Language                                 : English
  355. Default                                  : Yes
  356. Forced                                   : No
  357. Text #2
  358. ID                                       : 18
  359. Format                                   : UTF-8
  360. Codec ID                                 : S_TEXT/UTF8
  361. Codec ID/Info                            : UTF-8 Plain Text
  362. Duration                                 : 2 h 17 min
  363. Bit rate                                 : 50 b/s
  364. Count of elements                        : 1566
  365. Stream size                              : 50.8 KiB (0%)
  366. Title                                    : English-SDH-SRT
  367. Language                                 : English
  368. Default                                  : No
  369. Forced                                   : No
  370. Text #3
  371. ID                                       : 19
  372. Format                                   : UTF-8
  373. Codec ID                                 : S_TEXT/UTF8
  374. Codec ID/Info                            : UTF-8 Plain Text
  375. Duration                                 : 1 h 23 min
  376. Bit rate                                 : 0 b/s
  377. Count of elements                        : 19
  378. Stream size                              : 460 Bytes (0%)
  379. Title                                    : English-FORCED-SRT
  380. Language                                 : English
  381. Default                                  : No
  382. Forced                                   : No
  383. Text #4
  384. ID                                       : 20
  385. Format                                   : PGS
  386. Muxing mode                              : zlib
  387. Codec ID                                 : S_HDMV/PGS
  388. Codec ID/Info                            : Picture based subtitle format used on BDs/HD-DVDs
  389. Duration                                 : 2 h 1 min
  390. Bit rate                                 : 27.7 kb/s
  391. Count of elements                        : 2344
  392. Stream size                              : 24.1 MiB (0%)
  393. Title                                    : English-PGS
  394. Language                                 : English
  395. Default                                  : No
  396. Forced                                   : No
  397. Text #5
  398. ID                                       : 21
  399. Format                                   : PGS
  400. Muxing mode                              : zlib
  401. Codec ID                                 : S_HDMV/PGS
  402. Codec ID/Info                            : Picture based subtitle format used on BDs/HD-DVDs
  403. Duration                                 : 2 h 17 min
  404. Bit rate                                 : 30.2 kb/s
  405. Count of elements                        : 3142
  406. Stream size                              : 29.7 MiB (0%)
  407. Title                                    : English-SDH-PGS
  408. Language                                 : English
  409. Default                                  : No
  410. Forced                                   : No
  411. Text #6
  412. ID                                       : 22
  413. Format                                   : PGS
  414. Muxing mode                              : zlib
  415. Codec ID                                 : S_HDMV/PGS
  416. Codec ID/Info                            : Picture based subtitle format used on BDs/HD-DVDs
  417. Duration                                 : 2 h 1 min
  418. Bit rate                                 : 26.5 kb/s
  419. Count of elements                        : 2090
  420. Stream size                              : 23.1 MiB (0%)
  421. Title                                    : English-PGS
  422. Language                                 : English
  423. Default                                  : No
  424. Forced                                   : No
  425. Text #7
  426. ID                                       : 23
  427. Format                                   : PGS
  428. Muxing mode                              : zlib
  429. Codec ID                                 : S_HDMV/PGS
  430. Codec ID/Info                            : Picture based subtitle format used on BDs/HD-DVDs
  431. Duration                                 : 2 h 17 min
  432. Bit rate                                 : 27.8 kb/s
  433. Count of elements                        : 2949
  434. Stream size                              : 27.4 MiB (0%)
  435. Title                                    : English-SDH-PGS
  436. Language                                 : English
  437. Default                                  : No
  438. Forced                                   : No
  439. Text #8
  440. ID                                       : 24
  441. Format                                   : PGS
  442. Muxing mode                              : zlib
  443. Codec ID                                 : S_HDMV/PGS
  444. Codec ID/Info                            : Picture based subtitle format used on BDs/HD-DVDs
  445. Duration                                 : 2 h 8 min
  446. Bit rate                                 : 11.4 kb/s
  447. Count of elements                        : 1692
  448. Stream size                              : 10.5 MiB (0%)
  449. Title                                    : Arabic-PGS
  450. Language                                 : Arabic
  451. Default                                  : No
  452. Forced                                   : No
  453. Text #9
  454. ID                                       : 25
  455. Format                                   : PGS
  456. Muxing mode                              : zlib
  457. Codec ID                                 : S_HDMV/PGS
  458. Codec ID/Info                            : Picture based subtitle format used on BDs/HD-DVDs
  459. Duration                                 : 2 h 8 min
  460. Bit rate                                 : 18.0 kb/s
  461. Count of elements                        : 1750
  462. Stream size                              : 16.5 MiB (0%)
  463. Title                                    : Chinese-PGS
  464. Language                                 : Chinese
  465. Default                                  : No
  466. Forced                                   : No
  467. Text #10
  468. ID                                       : 26
  469. Format                                   : PGS
  470. Muxing mode                              : zlib
  471. Codec ID                                 : S_HDMV/PGS
  472. Codec ID/Info                            : Picture based subtitle format used on BDs/HD-DVDs
  473. Duration                                 : 2 h 8 min
  474. Bit rate                                 : 17.7 kb/s
  475. Count of elements                        : 1748
  476. Stream size                              : 16.2 MiB (0%)
  477. Title                                    : Chinese-PGS
  478. Language                                 : Chinese
  479. Default                                  : No
  480. Forced                                   : No
  481. Text #11
  482. ID                                       : 27
  483. Format                                   : PGS
  484. Muxing mode                              : zlib
  485. Codec ID                                 : S_HDMV/PGS
  486. Codec ID/Info                            : Picture based subtitle format used on BDs/HD-DVDs
  487. Duration                                 : 2 h 8 min
  488. Bit rate                                 : 17.2 kb/s
  489. Count of elements                        : 1680
  490. Stream size                              : 15.8 MiB (0%)
  491. Title                                    : Czech-PGS
  492. Language                                 : Czech
  493. Default                                  : No
  494. Forced                                   : No
  495. Text #12
  496. ID                                       : 28
  497. Format                                   : PGS
  498. Muxing mode                              : zlib
  499. Codec ID                                 : S_HDMV/PGS
  500. Codec ID/Info                            : Picture based subtitle format used on BDs/HD-DVDs
  501. Duration                                 : 2 h 5 min
  502. Bit rate                                 : 17.5 kb/s
  503. Count of elements                        : 1580
  504. Stream size                              : 15.7 MiB (0%)
  505. Title                                    : Danish-PGS
  506. Language                                 : Danish
  507. Default                                  : No
  508. Forced                                   : No
  509. Text #13
  510. ID                                       : 29
  511. Format                                   : PGS
  512. Muxing mode                              : zlib
  513. Codec ID                                 : S_HDMV/PGS
  514. Codec ID/Info                            : Picture based subtitle format used on BDs/HD-DVDs
  515. Duration                                 : 2 h 8 min
  516. Bit rate                                 : 19.0 kb/s
  517. Count of elements                        : 1672
  518. Stream size                              : 17.5 MiB (0%)
  519. Title                                    : Dutch-PGS
  520. Language                                 : Dutch
  521. Default                                  : No
  522. Forced                                   : No
  523. Text #14
  524. ID                                       : 30
  525. Format                                   : PGS
  526. Muxing mode                              : zlib
  527. Codec ID                                 : S_HDMV/PGS
  528. Codec ID/Info                            : Picture based subtitle format used on BDs/HD-DVDs
  529. Duration                                 : 2 h 5 min
  530. Bit rate                                 : 19.2 kb/s
  531. Count of elements                        : 1634
  532. Stream size                              : 17.2 MiB (0%)
  533. Title                                    : Finnish-PGS
  534. Language                                 : Finnish
  535. Default                                  : No
  536. Forced                                   : No
  537. Text #15
  538. ID                                       : 31
  539. Format                                   : PGS
  540. Muxing mode                              : zlib
  541. Codec ID                                 : S_HDMV/PGS
  542. Codec ID/Info                            : Picture based subtitle format used on BDs/HD-DVDs
  543. Duration                                 : 2 h 14 min
  544. Bit rate                                 : 17.0 kb/s
  545. Count of elements                        : 1772
  546. Stream size                              : 16.4 MiB (0%)
  547. Title                                    : French_PGS
  548. Language                                 : French
  549. Default                                  : No
  550. Forced                                   : No
  551. Text #16
  552. ID                                       : 32
  553. Format                                   : PGS
  554. Muxing mode                              : zlib
  555. Codec ID                                 : S_HDMV/PGS
  556. Codec ID/Info                            : Picture based subtitle format used on BDs/HD-DVDs
  557. Duration                                 : 2 h 8 min
  558. Bit rate                                 : 19.8 kb/s
  559. Count of elements                        : 1676
  560. Stream size                              : 18.2 MiB (0%)
  561. Title                                    : German-PGS
  562. Language                                 : German
  563. Default                                  : No
  564. Forced                                   : No
  565. Text #17
  566. ID                                       : 33
  567. Format                                   : PGS
  568. Muxing mode                              : zlib
  569. Codec ID                                 : S_HDMV/PGS
  570. Codec ID/Info                            : Picture based subtitle format used on BDs/HD-DVDs
  571. Duration                                 : 2 h 9 min
  572. Bit rate                                 : 18.7 kb/s
  573. Count of elements                        : 1612
  574. Stream size                              : 17.3 MiB (0%)
  575. Title                                    : Greek-PGS
  576. Language                                 : Greek
  577. Default                                  : No
  578. Forced                                   : No
  579. Text #18
  580. ID                                       : 34
  581. Format                                   : PGS
  582. Muxing mode                              : zlib
  583. Codec ID                                 : S_HDMV/PGS
  584. Codec ID/Info                            : Picture based subtitle format used on BDs/HD-DVDs
  585. Duration                                 : 2 h 8 min
  586. Bit rate                                 : 12.4 kb/s
  587. Count of elements                        : 1696
  588. Stream size                              : 11.4 MiB (0%)
  589. Title                                    : Hindi-PGS
  590. Language                                 : Hindi
  591. Default                                  : No
  592. Forced                                   : No
  593. Text #19
  594. ID                                       : 35
  595. Format                                   : PGS
  596. Muxing mode                              : zlib
  597. Codec ID                                 : S_HDMV/PGS
  598. Codec ID/Info                            : Picture based subtitle format used on BDs/HD-DVDs
  599. Duration                                 : 2 h 8 min
  600. Bit rate                                 : 19.4 kb/s
  601. Count of elements                        : 1692
  602. Stream size                              : 17.9 MiB (0%)
  603. Title                                    : Hungarian-PGS
  604. Language                                 : Hungarian
  605. Default                                  : No
  606. Forced                                   : No
  607. Text #20
  608. ID                                       : 36
  609. Format                                   : PGS
  610. Muxing mode                              : zlib
  611. Codec ID                                 : S_HDMV/PGS
  612. Codec ID/Info                            : Picture based subtitle format used on BDs/HD-DVDs
  613. Duration                                 : 2 h 8 min
  614. Bit rate                                 : 19.5 kb/s
  615. Count of elements                        : 1684
  616. Stream size                              : 17.9 MiB (0%)
  617. Title                                    : Italian-PGS
  618. Language                                 : Italian
  619. Default                                  : No
  620. Forced                                   : No
  621. Text #21
  622. ID                                       : 37
  623. Format                                   : PGS
  624. Muxing mode                              : zlib
  625. Codec ID                                 : S_HDMV/PGS
  626. Codec ID/Info                            : Picture based subtitle format used on BDs/HD-DVDs
  627. Duration                                 : 2 h 8 min
  628. Bit rate                                 : 16.4 kb/s
  629. Count of elements                        : 1609
  630. Stream size                              : 15.0 MiB (0%)
  631. Title                                    : Korean-PGS
  632. Language                                 : Korean
  633. Default                                  : No
  634. Forced                                   : No
  635. Text #22
  636. ID                                       : 38
  637. Format                                   : PGS
  638. Muxing mode                              : zlib
  639. Codec ID                                 : S_HDMV/PGS
  640. Codec ID/Info                            : Picture based subtitle format used on BDs/HD-DVDs
  641. Duration                                 : 2 h 5 min
  642. Bit rate                                 : 18.1 kb/s
  643. Count of elements                        : 1588
  644. Stream size                              : 16.2 MiB (0%)
  645. Title                                    : Norwegian-PGS
  646. Language                                 : Norwegian
  647. Default                                  : No
  648. Forced                                   : No
  649. Text #23
  650. ID                                       : 39
  651. Format                                   : PGS
  652. Muxing mode                              : zlib
  653. Codec ID                                 : S_HDMV/PGS
  654. Codec ID/Info                            : Picture based subtitle format used on BDs/HD-DVDs
  655. Duration                                 : 2 h 8 min
  656. Bit rate                                 : 18.1 kb/s
  657. Count of elements                        : 1688
  658. Stream size                              : 16.6 MiB (0%)
  659. Title                                    : Polish-PGS
  660. Language                                 : Polish
  661. Default                                  : No
  662. Forced                                   : No
  663. Text #24
  664. ID                                       : 40
  665. Format                                   : PGS
  666. Muxing mode                              : zlib
  667. Codec ID                                 : S_HDMV/PGS
  668. Codec ID/Info                            : Picture based subtitle format used on BDs/HD-DVDs
  669. Duration                                 : 2 h 8 min
  670. Bit rate                                 : 22.7 kb/s
  671. Count of elements                        : 2062
  672. Stream size                              : 20.8 MiB (0%)
  673. Title                                    : Portuguese-PGS
  674. Language                                 : Portuguese
  675. Default                                  : No
  676. Forced                                   : No
  677. Text #25
  678. ID                                       : 41
  679. Format                                   : PGS
  680. Muxing mode                              : zlib
  681. Codec ID                                 : S_HDMV/PGS
  682. Codec ID/Info                            : Picture based subtitle format used on BDs/HD-DVDs
  683. Duration                                 : 2 h 17 min
  684. Bit rate                                 : 19.1 kb/s
  685. Count of elements                        : 1788
  686. Stream size                              : 18.9 MiB (0%)
  687. Title                                    : Portuguese-PGS
  688. Language                                 : Portuguese
  689. Default                                  : No
  690. Forced                                   : No
  691. Text #26
  692. ID                                       : 42
  693. Format                                   : PGS
  694. Muxing mode                              : zlib
  695. Codec ID                                 : S_HDMV/PGS
  696. Codec ID/Info                            : Picture based subtitle format used on BDs/HD-DVDs
  697. Duration                                 : 2 h 17 min
  698. Bit rate                                 : 17.7 kb/s
  699. Count of elements                        : 1688
  700. Stream size                              : 17.5 MiB (0%)
  701. Title                                    : Romanian-PGS
  702. Language                                 : Romanian
  703. Default                                  : No
  704. Forced                                   : No
  705. Text #27
  706. ID                                       : 43
  707. Format                                   : PGS
  708. Muxing mode                              : zlib
  709. Codec ID                                 : S_HDMV/PGS
  710. Codec ID/Info                            : Picture based subtitle format used on BDs/HD-DVDs
  711. Duration                                 : 2 h 8 min
  712. Bit rate                                 : 19.4 kb/s
  713. Count of elements                        : 1714
  714. Stream size                              : 17.8 MiB (0%)
  715. Title                                    : Russian-PGS
  716. Language                                 : Russian
  717. Default                                  : No
  718. Forced                                   : No
  719. Text #28
  720. ID                                       : 44
  721. Format                                   : PGS
  722. Muxing mode                              : zlib
  723. Codec ID                                 : S_HDMV/PGS
  724. Codec ID/Info                            : Picture based subtitle format used on BDs/HD-DVDs
  725. Duration                                 : 2 h 8 min
  726. Bit rate                                 : 18.5 kb/s
  727. Count of elements                        : 1686
  728. Stream size                              : 17.0 MiB (0%)
  729. Title                                    : Slovak-PGS
  730. Language                                 : Slovak
  731. Default                                  : No
  732. Forced                                   : No
  733. Text #29
  734. ID                                       : 45
  735. Format                                   : PGS
  736. Muxing mode                              : zlib
  737. Codec ID                                 : S_HDMV/PGS
  738. Codec ID/Info                            : Picture based subtitle format used on BDs/HD-DVDs
  739. Duration                                 : 2 h 8 min
  740. Bit rate                                 : 17.0 kb/s
  741. Count of elements                        : 1690
  742. Stream size                              : 15.6 MiB (0%)
  743. Title                                    : Slovenian-PGS
  744. Language                                 : Slovenian
  745. Default                                  : No
  746. Forced                                   : No
  747. Text #30
  748. ID                                       : 46
  749. Format                                   : PGS
  750. Muxing mode                              : zlib
  751. Codec ID                                 : S_HDMV/PGS
  752. Codec ID/Info                            : Picture based subtitle format used on BDs/HD-DVDs
  753. Duration                                 : 2 h 8 min
  754. Bit rate                                 : 19.1 kb/s
  755. Count of elements                        : 1670
  756. Stream size                              : 17.5 MiB (0%)
  757. Title                                    : Spanish-PGS
  758. Language                                 : Spanish
  759. Default                                  : No
  760. Forced                                   : No
  761. Text #31
  762. ID                                       : 47
  763. Format                                   : PGS
  764. Muxing mode                              : zlib
  765. Codec ID                                 : S_HDMV/PGS
  766. Codec ID/Info                            : Picture based subtitle format used on BDs/HD-DVDs
  767. Duration                                 : 2 h 8 min
  768. Bit rate                                 : 23.4 kb/s
  769. Count of elements                        : 2536
  770. Stream size                              : 21.5 MiB (0%)
  771. Title                                    : Spanish-PGS
  772. Language                                 : Spanish
  773. Default                                  : No
  774. Forced                                   : No
  775. Text #32
  776. ID                                       : 48
  777. Format                                   : PGS
  778. Muxing mode                              : zlib
  779. Codec ID                                 : S_HDMV/PGS
  780. Codec ID/Info                            : Picture based subtitle format used on BDs/HD-DVDs
  781. Duration                                 : 2 h 5 min
  782. Bit rate                                 : 16.3 kb/s
  783. Count of elements                        : 1622
  784. Stream size                              : 14.6 MiB (0%)
  785. Title                                    : Swedish-PGS
  786. Language                                 : Swedish
  787. Default                                  : No
  788. Forced                                   : No
  789. Text #33
  790. ID                                       : 49
  791. Format                                   : PGS
  792. Muxing mode                              : zlib
  793. Codec ID                                 : S_HDMV/PGS
  794. Codec ID/Info                            : Picture based subtitle format used on BDs/HD-DVDs
  795. Duration                                 : 2 h 8 min
  796. Bit rate                                 : 20.0 kb/s
  797. Count of elements                        : 1694
  798. Stream size                              : 18.4 MiB (0%)
  799. Title                                    : Thai-PGS
  800. Language                                 : Thai
  801. Default                                  : No
  802. Forced                                   : No
  803. Text #34
  804. ID                                       : 50
  805. Format                                   : PGS
  806. Muxing mode                              : zlib
  807. Codec ID                                 : S_HDMV/PGS
  808. Codec ID/Info                            : Picture based subtitle format used on BDs/HD-DVDs
  809. Duration                                 : 2 h 8 min
  810. Bit rate                                 : 20.0 kb/s
  811. Count of elements                        : 1684
  812. Stream size                              : 18.3 MiB (0%)
  813. Title                                    : Turkish-PGS
  814. Language                                 : Turkish
  815. Default                                  : No
  816. Forced                                   : No
  817. Text #35
  818. ID                                       : 51
  819. Format                                   : PGS
  820. Muxing mode                              : zlib
  821. Codec ID                                 : S_HDMV/PGS
  822. Codec ID/Info                            : Picture based subtitle format used on BDs/HD-DVDs
  823. Duration                                 : 2 h 17 min
  824. Bit rate                                 : 17.5 kb/s
  825. Count of elements                        : 1700
  826. Stream size                              : 17.3 MiB (0%)
  827. Title                                    : Ukranian-PGS
  828. Language                                 : Ukrainian
  829. Default                                  : No
  830. Forced                                   : No
  831. Menu
  832. 00:00:00.000                             : en:Chapter 01
  833. 00:07:48.176                             : en:Chapter 02
  834. 00:17:25.085                             : en:Chapter 03
  835. 00:25:28.151                             : en:Chapter 04
  836. 00:36:53.711                             : en:Chapter 05
  837. 00:41:48.047                             : en:Chapter 06
  838. 00:48:19.730                             : en:Chapter 07
  839. 01:01:35.942                             : en:Chapter 08
  840. 01:11:05.886                             : en:Chapter 09
  841. 01:21:38.310                             : en:Chapter 10
  842. 01:30:26.212                             : en:Chapter 11
  843. 01:39:13.822                             : en:Chapter 12
  844. 01:50:23.867                             : en:Chapter 13
  845. 01:52:28.658                             : en:Chapter 14
  846. 02:00:36.771                             : en:Chapter 15
  847. 02:05:56.882                             : en:Chapter 16
复制代码






                                       
                                       

                                       
                                       
                                       




回复

使用道具 举报

懒得打字嘛,点击右侧快捷回复 【右侧内容,后台自定义】
您需要登录后才可以回帖 登录 | 立即加入

本版积分规则

Archiver|小黑屋| 蓝光电影网 |网站地图

Copyright © 2021 Comsenz Inc. Powered by 蓝光电影网

蓝光电影网

本站内容由用户自主分享和转载自互联网,转载目的在于传递更多信息,并不代表本网赞同其观点和对其真实性负责。

如有侵权、违反国家法律政策行为,请联系我们,我们会第一时间及时清除和处理!

举报反馈邮箱:[email protected]

快速回复 返回顶部 返回列表