找回密码

蓝光电影网

查看: 11|回复: 0

[2160p] 未来水世界/水世界 Waterworld.1995.2160p.BluRay.x264.8bit.SDR.DTS-X.7.1-SWTYBLZ 55.82GB

[复制链接]
蓝光币
382
发表于 2019-7-21 03:59:12 | 显示全部楼层 |阅读模式


◎译  名 未来水天下 / 水天下
◎片  名 Waterworld
◎年  代 1995
◎产  地 美国
◎类  别 行动 / 科幻 / 惊悚 / 冒险
◎语  言 英语
◎上映日期 1995-07-28
◎IMDb评分  6.2/10 from 167605 users
◎IMDb链接  http://www.imdb.com/title/tt0114898
◎豆瓣评分 7.3/10 from 51036 users
◎豆瓣链接 https://movie.douban.com/subject/1294037/
◎片  长 135 分钟
◎导  演 Kevin Reynolds
◎编  剧 Peter Rader / David Twohy
◎主  演 Kevin Costner
      Jeanne Tripplehorn
      Tina Majorino
      Chaim Girafi
      Rick Aviles

◎标  签 科幻 | 美国 | 未来水天下 | 行动 | 美国电影 | KevinCostner | 1995 | 电影
◎简  介  
  公元2500年,地球两极冰川大量消融,地球成了一片汪洋。人们只能在水上保存,建起了水上浮岛,土壤成了稀有之物。
一天,来了一个孤独的海行者(凯文?科斯特纳 Kevin Costner 饰),他用了一罐土壤换了淡水和番茄苗。正当他要分开时,当地人发现他居然长着鳃和蹼,以为他是怪物,把他关了起来,预备过两天将他正法。
光阴,海盗攻击了浮岛,海伦(珍妮?特里普里霍恩 Jeanne Tripplehorn 饰)和她的养女伊萝娜(蒂娜?米乔里诺 Tina Majorino  饰)没能遇上出逃的救生船,她们救出了海行者。海行者凭着过人的机智和勇敢,带着海伦和依蒙娜逃了出来。
本来,海盗的方针只是伊萝娜,依蒙娜的身世藏着一个惊人的奥秘……
◎获奖情况  
  第68届奥斯卡金像奖(1996)
  最好声响(提名) 格雷格·兰达克 / 史蒂夫·马斯洛 / 基思·A·韦斯特
  第49届英国电影学院奖(1996)
  电影奖 最好特别视觉结果(提名) Michael J. McAlister / Robert Spurlock / 布拉德·库恩 / Martin Bresin

  1. Video
  2. ID                                       : 1
  3. Format                                   : AVC
  4. Format/Info                              : Advanced Video Codec
  5. Format profile                           : [email protected]
  6. Format settings                          : CABAC / 5 Ref Frames
  7. Format settings, CABAC                   : Yes
  8. Format settings, Reference frames        : 5 frames
  9. Codec ID                                 : V_MPEG4/ISO/AVC
  10. Duration                                 : 2 h 15 min
  11. Bit rate                                 : 49.8 Mb/s
  12. Width                                    : 3 840 pixels
  13. Height                                   : 2 078 pixels
  14. Display aspect ratio                     : 1.85:1
  15. Frame rate mode                          : Constant
  16. Frame rate                               : 23.976 (24000/1001) FPS
  17. Color space                              : YUV
  18. Chroma subsampling                       : 4:2:0
  19. Bit depth                                : 8 bits
  20. Scan type                                : Progressive
  21. Bits/(Pixel*Frame)                       : 0.260
  22. Stream size                              : 47.0 GiB (85%)
  23. Title                                    : Waterworld.1995.2160p.BluRay.x264.8bit.SDR.DTS-X.7.1-SWTYBLZ
  24. Writing library                          : x264 core 157 r2935 545de2f
  25. Encoding settings                        : cabac=1 / ref=5 / deblock=1:-1:-1 / analyse=0x3:0x113 / me=umh / subme=10 / psy=1 / psy_rd=1.00:0.15 / mixed_ref=1 / me_range=48 / chroma_me=1 / trellis=2 / 8x8dct=1 / cqm=0 / deadzone=21,11 / fast_pskip=1 / chroma_qp_offset=-3 / threads=48 / lookahead_threads=4 / sliced_threads=0 / nr=0 / decimate=0 / interlaced=0 / bluray_compat=0 / constrained_intra=0 / bframes=3 / b_pyramid=2 / b_adapt=2 / b_bias=0 / direct=3 / weightb=1 / open_gop=0 / weightp=2 / keyint=250 / keyint_min=23 / scenecut=40 / intra_refresh=0 / rc_lookahead=50 / rc=crf / mbtree=1 / crf=22.0 / qcomp=0.60 / qpmin=0 / qpmax=69 / qpstep=4 / ip_ratio=1.40 / aq=1:1.00
  26. Language                                 : English
  27. Default                                  : Yes
  28. Forced                                   : No
  29. Audio #1
  30. ID                                       : 2
  31. Format                                   : DTS XLL X
  32. Format/Info                              : Digital Theater Systems
  33. Commercial name                          : DTS-HD Master Audio
  34. Codec ID                                 : A_DTS
  35. Duration                                 : 2 h 15 min
  36. Bit rate mode                            : Variable
  37. Bit rate                                 : 8 281 kb/s
  38. Channel(s)                               : 8 channels
  39. Channel(s)_Original                      : Object Based
  40. Channel layout                           : Object Based
  41. Sampling rate                            : 48.0 kHz
  42. Frame rate                               : 93.750 FPS (512 SPF)
  43. Bit depth                                : 24 bits
  44. Stream size                              : 7.82 GiB (14%)
  45. Title                                    : Waterworld.1995.2160p.BluRay.x264.8bit.SDR.DTS-X.7.1-SWTYBLZ
  46. Language                                 : English
  47. Default                                  : Yes
  48. Forced                                   : No
  49. Audio #2
  50. ID                                       : 3
  51. Format                                   : AC-3
  52. Format/Info                              : Audio Coding 3
  53. Commercial name                          : Dolby Digital
  54. Codec ID                                 : A_AC3
  55. Duration                                 : 2 h 15 min
  56. Bit rate mode                            : Constant
  57. Bit rate                                 : 640 kb/s
  58. Channel(s)                               : 6 channels
  59. Channel layout                           : L R C LFE Ls Rs
  60. Sampling rate                            : 48.0 kHz
  61. Frame rate                               : 31.250 FPS (1536 SPF)
  62. Bit depth                                : 16 bits
  63. Compression mode                         : Lossy
  64. Stream size                              : 619 MiB (1%)
  65. Title                                    : Waterworld.1995.2160p.BluRay.x264.8bit.SDR.DTS-X.7.1-SWTYBLZ
  66. Language                                 : English
  67. Service kind                             : Complete Main
  68. Default                                  : No
  69. Forced                                   : No
  70. Text #1
  71. ID                                       : 4
  72. Format                                   : UTF-8
  73. Codec ID                                 : S_TEXT/UTF8
  74. Codec ID/Info                            : UTF-8 Plain Text
  75. Duration                                 : 2 h 3 min
  76. Bit rate                                 : 34 b/s
  77. Count of elements                        : 1032
  78. Stream size                              : 31.2 KiB (0%)
  79. Title                                    : English-SRT
  80. Language                                 : English
  81. Default                                  : Yes
  82. Forced                                   : No
  83. Text #2
  84. ID                                       : 5
  85. Format                                   : PGS
  86. Muxing mode                              : zlib
  87. Codec ID                                 : S_HDMV/PGS
  88. Codec ID/Info                            : Picture based subtitle format used on BDs/HD-DVDs
  89. Duration                                 : 2 h 3 min
  90. Bit rate                                 : 24.7 kb/s
  91. Count of elements                        : 2322
  92. Stream size                              : 21.9 MiB (0%)
  93. Title                                    : English-PGS
  94. Language                                 : English
  95. Default                                  : No
  96. Forced                                   : No
  97. Text #3
  98. ID                                       : 6
  99. Format                                   : PGS
  100. Muxing mode                              : zlib
  101. Codec ID                                 : S_HDMV/PGS
  102. Codec ID/Info                            : Picture based subtitle format used on BDs/HD-DVDs
  103. Duration                                 : 2 h 14 min
  104. Bit rate                                 : 15.1 kb/s
  105. Count of elements                        : 1787
  106. Stream size                              : 14.5 MiB (0%)
  107. Title                                    : French-PGS
  108. Language                                 : French
  109. Default                                  : No
  110. Forced                                   : No
  111. Text #4
  112. ID                                       : 7
  113. Format                                   : PGS
  114. Muxing mode                              : zlib
  115. Codec ID                                 : S_HDMV/PGS
  116. Codec ID/Info                            : Picture based subtitle format used on BDs/HD-DVDs
  117. Duration                                 : 2 h 14 min
  118. Bit rate                                 : 19.3 kb/s
  119. Count of elements                        : 2057
  120. Stream size                              : 18.6 MiB (0%)
  121. Title                                    : Dutch-PGS
  122. Language                                 : Dutch
  123. Default                                  : No
  124. Forced                                   : No
  125. Text #5
  126. ID                                       : 8
  127. Format                                   : PGS
  128. Muxing mode                              : zlib
  129. Codec ID                                 : S_HDMV/PGS
  130. Codec ID/Info                            : Picture based subtitle format used on BDs/HD-DVDs
  131. Duration                                 : 2 h 14 min
  132. Bit rate                                 : 16.6 kb/s
  133. Count of elements                        : 1845
  134. Stream size                              : 15.9 MiB (0%)
  135. Title                                    : Danish-PGS
  136. Language                                 : Danish
  137. Default                                  : No
  138. Forced                                   : No
  139. Text #6
  140. ID                                       : 9
  141. Format                                   : PGS
  142. Muxing mode                              : zlib
  143. Codec ID                                 : S_HDMV/PGS
  144. Codec ID/Info                            : Picture based subtitle format used on BDs/HD-DVDs
  145. Duration                                 : 2 h 14 min
  146. Bit rate                                 : 16.5 kb/s
  147. Count of elements                        : 1891
  148. Stream size                              : 15.9 MiB (0%)
  149. Title                                    : Finnish-PGS
  150. Language                                 : Finnish
  151. Default                                  : No
  152. Forced                                   : No
  153. Text #7
  154. ID                                       : 10
  155. Format                                   : PGS
  156. Muxing mode                              : zlib
  157. Codec ID                                 : S_HDMV/PGS
  158. Codec ID/Info                            : Picture based subtitle format used on BDs/HD-DVDs
  159. Duration                                 : 2 h 14 min
  160. Bit rate                                 : 17.9 kb/s
  161. Count of elements                        : 2057
  162. Stream size                              : 17.2 MiB (0%)
  163. Title                                    : Norwegian-PGS
  164. Language                                 : Norwegian
  165. Default                                  : No
  166. Forced                                   : No
  167. Text #8
  168. ID                                       : 11
  169. Format                                   : PGS
  170. Muxing mode                              : zlib
  171. Codec ID                                 : S_HDMV/PGS
  172. Codec ID/Info                            : Picture based subtitle format used on BDs/HD-DVDs
  173. Duration                                 : 2 h 14 min
  174. Bit rate                                 : 17.1 kb/s
  175. Count of elements                        : 1909
  176. Stream size                              : 16.4 MiB (0%)
  177. Title                                    : Swedish-PGS
  178. Language                                 : Swedish
  179. Default                                  : No
  180. Forced                                   : No
  181. Text #9
  182. ID                                       : 12
  183. Format                                   : PGS
  184. Muxing mode                              : zlib
  185. Codec ID                                 : S_HDMV/PGS
  186. Codec ID/Info                            : Picture based subtitle format used on BDs/HD-DVDs
  187. Duration                                 : 2 h 14 min
  188. Bit rate                                 : 18.1 kb/s
  189. Count of elements                        : 2054
  190. Stream size                              : 17.4 MiB (0%)
  191. Title                                    : Russian-PGS
  192. Language                                 : Russian
  193. Default                                  : No
  194. Forced                                   : No
  195. Text #10
  196. ID                                       : 13
  197. Format                                   : PGS
  198. Muxing mode                              : zlib
  199. Codec ID                                 : S_HDMV/PGS
  200. Codec ID/Info                            : Picture based subtitle format used on BDs/HD-DVDs
  201. Duration                                 : 2 h 14 min
  202. Bit rate                                 : 19.3 kb/s
  203. Count of elements                        : 2064
  204. Stream size                              : 18.5 MiB (0%)
  205. Title                                    : Hungarian-PGS
  206. Language                                 : Hungarian
  207. Default                                  : No
  208. Forced                                   : No
  209. Text #11
  210. ID                                       : 14
  211. Format                                   : PGS
  212. Muxing mode                              : zlib
  213. Codec ID                                 : S_HDMV/PGS
  214. Codec ID/Info                            : Picture based subtitle format used on BDs/HD-DVDs
  215. Duration                                 : 2 h 14 min
  216. Bit rate                                 : 18.2 kb/s
  217. Count of elements                        : 2046
  218. Stream size                              : 17.5 MiB (0%)
  219. Title                                    : Polish-PGS
  220. Language                                 : Polish
  221. Default                                  : No
  222. Forced                                   : No
  223. Text #12
  224. ID                                       : 15
  225. Format                                   : PGS
  226. Muxing mode                              : zlib
  227. Codec ID                                 : S_HDMV/PGS
  228. Codec ID/Info                            : Picture based subtitle format used on BDs/HD-DVDs
  229. Duration                                 : 2 h 14 min
  230. Bit rate                                 : 16.7 kb/s
  231. Count of elements                        : 2084
  232. Stream size                              : 16.0 MiB (0%)
  233. Title                                    : Chinese-PGS
  234. Language                                 : Chinese
  235. Default                                  : No
  236. Forced                                   : No
  237. Text #13
  238. ID                                       : 16
  239. Format                                   : PGS
  240. Muxing mode                              : zlib
  241. Codec ID                                 : S_HDMV/PGS
  242. Codec ID/Info                            : Picture based subtitle format used on BDs/HD-DVDs
  243. Duration                                 : 2 h 14 min
  244. Bit rate                                 : 17.3 kb/s
  245. Count of elements                        : 2064
  246. Stream size                              : 16.6 MiB (0%)
  247. Title                                    : Chinese-PGS
  248. Language                                 : Chinese
  249. Default                                  : No
  250. Forced                                   : No
  251. Text #14
  252. ID                                       : 17
  253. Format                                   : PGS
  254. Muxing mode                              : zlib
  255. Codec ID                                 : S_HDMV/PGS
  256. Codec ID/Info                            : Picture based subtitle format used on BDs/HD-DVDs
  257. Duration                                 : 2 h 3 min
  258. Bit rate                                 : 11.2 kb/s
  259. Count of elements                        : 1902
  260. Stream size                              : 9.95 MiB (0%)
  261. Title                                    : Korean-PGS
  262. Language                                 : Korean
  263. Default                                  : No
  264. Forced                                   : No
  265. Text #15
  266. ID                                       : 18
  267. Format                                   : PGS
  268. Muxing mode                              : zlib
  269. Codec ID                                 : S_HDMV/PGS
  270. Codec ID/Info                            : Picture based subtitle format used on BDs/HD-DVDs
  271. Duration                                 : 2 h 14 min
  272. Bit rate                                 : 21.8 kb/s
  273. Count of elements                        : 2061
  274. Stream size                              : 20.9 MiB (0%)
  275. Title                                    : Greek-PGS
  276. Language                                 : Greek
  277. Default                                  : No
  278. Forced                                   : No
  279. Text #16
  280. ID                                       : 19
  281. Format                                   : PGS
  282. Muxing mode                              : zlib
  283. Codec ID                                 : S_HDMV/PGS
  284. Codec ID/Info                            : Picture based subtitle format used on BDs/HD-DVDs
  285. Duration                                 : 2 h 14 min
  286. Bit rate                                 : 17.2 kb/s
  287. Count of elements                        : 2060
  288. Stream size                              : 16.5 MiB (0%)
  289. Title                                    : Romanian-PGS
  290. Language                                 : Romanian
  291. Default                                  : No
  292. Forced                                   : No
  293. Menu
  294. 00:00:00.000                             : en:Chapter 01
  295. 00:06:28.846                             : en:Chapter 02
  296. 00:09:55.886                             : en:Chapter 03
  297. 00:25:33.698                             : en:Chapter 04
  298. 00:53:20.572                             : en:Chapter 05
  299. 00:59:36.447                             : en:Chapter 06
  300. 01:15:04.124                             : en:Chapter 07
  301. 01:21:22.460                             : en:Chapter 08
  302. 01:25:18.071                             : en:Chapter 09
  303. 01:39:30.089                             : en:Chapter 10
  304. 01:43:48.430                             : en:Chapter 11
  305. 01:49:07.874                             : en:Chapter 12
  306. 01:55:18.369                             : en:Chapter 13
  307. 01:57:05.852                             : en:Chapter 14
  308. 01:59:39.964                             : en:Chapter 15
  309. 02:06:31.000                             : en:Chapter 16
复制代码









                                       
                                       

                                       
                                       
                                       




回复

使用道具 举报

懒得打字嘛,点击右侧快捷回复 【右侧内容,后台自定义】
您需要登录后才可以回帖 登录 | 立即加入

本版积分规则

Archiver|小黑屋| 蓝光电影网 |网站地图

Copyright © 2021 Comsenz Inc. Powered by 蓝光电影网

蓝光电影网

本站内容由用户自主分享和转载自互联网,转载目的在于传递更多信息,并不代表本网赞同其观点和对其真实性负责。

如有侵权、违反国家法律政策行为,请联系我们,我们会第一时间及时清除和处理!

举报反馈邮箱:[email protected]

快速回复 返回顶部 返回列表