找回密码

蓝光电影网

查看: 1354|回复: 32

[2160p] 速度与激情9/F9狂野时速 Fast.and.Furious.F9.The.Fast.Saga.2021.2160p.WEB-DL.DDP5.1.Atmos.DV.MKV.x265-FLUX 15.15GB

[复制链接]
蓝光币
382
发表于 2021-7-29 22:45:51 | 显示全部楼层 |阅读模式


◎译  名 速度与豪情9/F9狂野时速(港)/Fast & Furious 9/FF9/狂野时速9/玩命关头9(台)/速激9
◎片  名 F9: The Fast Saga
◎年  代 2021
◎产  地 美国,泰国,加拿大
◎类  别 行动 / 犯罪
◎语  言 英语
◎上映日期 2021-05-19(韩国) / 2021-05-21(中国大陆) / 2021-06-25(美国)
◎豆瓣评分 5.5/10 from 129334 users
◎豆瓣链接 https://movie.douban.com/subject/25728006/
◎片  长 142分钟(中国大陆)
◎导  演 林诣彬 Justin Lin
◎编  剧 丹·凯西 Daniel Casey / 盖瑞·斯科特·汤普森 Gary Scott Thompson / 克里斯·摩根 Chris Morgan
◎主  演 范·迪塞尔 Vin Diesel
       约翰·塞纳 John Cena
       米歇尔·罗德里格兹 Michelle Rodriguez
       乔丹娜·布鲁斯特 Jordana Brewster
       泰瑞斯·吉布森 Tyrese Gibson
       卢达·克里斯 Ludacris
       查理兹·塞隆 Charlize Theron
       海伦·米伦 Helen Mirren
       姜成镐 Sung Kang
       娜塔莉·伊曼纽尔 Nathalie Emmanuel
       迈克尔·鲁克 Michael Rooker
       卢卡斯·布莱克 Lucas Black
       杜俊纬 Jason Tobin
       卡迪·B Cardi B
       吉姆·帕拉克 Jim Parrack
       芬恩·科尔 Finn Cole
       安珀·西耶娜 Amber Sienna
       马丁·福特 Martyn Ford
       艾拉·沃克 Ella Walker
       泽井杏奈 Anna Sawai
       图厄·埃尔斯特德·拉斯姆森 Thue Ersted Rasmussen
       米拉吉·格尔比克 Miraj Grbic
       吉米·斯达 Jimmy Star
       莱克斯·艾尔 Lex Elle
       温尼·贝内特 Vinnie Bennett
       马克·克雷尼克 Mark Krenik
       杰森·斯坦森 Jason Statham
◎标  签 行动 | 飙车 | 美国 | 犯罪 | 跑车 | 2021 | 科幻 | 赛车
◎简  介


  “唐老迈”多姆·托莱多(范·迪塞尔 饰)与莱蒂(米歇尔·罗德里格兹 饰)和他的儿子小布莱恩,过上了阔别纷扰的安静生活。但是他们也晓得,安宁之下总潜藏着危机。这一次,为了庇护他所爱的人,唐老迈不能不直面曩昔。他和伙伴们面临的是一场足以引发天下动乱的诡计,以及一个前所未遇的一流杀手和高能车手。而这个名叫雅各布(约翰·塞纳 饰)的人,恰巧是多姆遗落在外的亲弟弟。
◎获奖情况
  第7届豆瓣电影年度榜单 ?(2020)
  最值得期待的外语电影(提名)
  
  第6届豆瓣电影年度榜单 ?(2019)
  最值得期待的外语电影(提名)
  1. Video
  2. ID                                       : 1
  3. Format                                   : HEVC
  4. Format/Info                              : High Efficiency Video Coding
  5. Format profile                           : Main [email protected]@High
  6. HDR format                               : Dolby Vision, Version 1.0, dvhe.05.06, BL+RPU
  7. Codec ID                                 : V_MPEGH/ISO/HEVC
  8. Duration                                 : 2 h 22 min
  9. Bit rate                                 : 14.4 Mb/s
  10. Width                                    : 3 840 pixels
  11. Original width                           : 3 836 pixels
  12. Height                                   : 1 600 pixels
  13. Display aspect ratio                     : 2.40:1
  14. Original display aspect ratio            : 2.40:1
  15. Frame rate mode                          : Constant
  16. Frame rate                               : 23.976 (24000/1001/189150) FPS
  17. Color space                              : YUV
  18. Chroma subsampling                       : 4:2:0
  19. Bit depth                                : 10 bits
  20. Bits/(Pixel*Frame)                       : 0.098
  21. Stream size                              : 14.4 GiB (95%)
  22. Default                                  : Yes
  23. Forced                                   : No
  24. Audio
  25. ID                                       : 2
  26. Format                                   : E-AC-3 JOC
  27. Format/Info                              : Enhanced AC-3 with Joint Object Coding
  28. Commercial name                          : Dolby Digital Plus with Dolby Atmos
  29. Codec ID                                 : A_EAC3
  30. Duration                                 : 2 h 22 min
  31. Bit rate mode                            : Constant
  32. Bit rate                                 : 768 kb/s
  33. Channel(s)                               : 6 channels
  34. Channel layout                           : L R C LFE Ls Rs
  35. Sampling rate                            : 48.0 kHz
  36. Frame rate                               : 31.250 FPS (1536 SPF)
  37. Compression mode                         : Lossy
  38. Stream size                              : 785 MiB (5%)
  39. Title                                    : English (US)
  40. Language                                 : English
  41. Service kind                             : Complete Main
  42. Default                                  : No
  43. Forced                                   : No
  44. Complexity index                         : 16
  45. Number of dynamic objects                : 15
  46. Bed channel count                        : 1 channel
  47. Bed channel configuration                : LFE
  48. Text #1
  49. ID                                       : 3
  50. Format                                   : UTF-8
  51. Codec ID                                 : S_TEXT/UTF8
  52. Codec ID/Info                            : UTF-8 Plain Text
  53. Duration                                 : 51 min 20 s
  54. Bit rate                                 : 45 b/s
  55. Count of elements                        : 577
  56. Stream size                              : 17.2 KiB (0%)
  57. Title                                    : English
  58. Language                                 : English
  59. Default                                  : No
  60. Forced                                   : No
  61. Text #2
  62. ID                                       : 4
  63. Format                                   : UTF-8
  64. Codec ID                                 : S_TEXT/UTF8
  65. Codec ID/Info                            : UTF-8 Plain Text
  66. Duration                                 : 52 min 35 s
  67. Bit rate                                 : 56 b/s
  68. Count of elements                        : 771
  69. Stream size                              : 21.6 KiB (0%)
  70. Title                                    : English [CC]
  71. Language                                 : English
  72. Default                                  : No
  73. Forced                                   : No
  74. Text #3
  75. ID                                       : 5
  76. Format                                   : UTF-8
  77. Codec ID                                 : S_TEXT/UTF8
  78. Codec ID/Info                            : UTF-8 Plain Text
  79. Duration                                 : 2 h 12 min
  80. Bit rate                                 : 38 b/s
  81. Count of elements                        : 1348
  82. Stream size                              : 37.8 KiB (0%)
  83. Title                                    : Espa?±ol (Latinoam??rica)
  84. Language                                 : Spanish
  85. Default                                  : No
  86. Forced                                   : No
  87. Text #4
  88. ID                                       : 6
  89. Format                                   : UTF-8
  90. Codec ID                                 : S_TEXT/UTF8
  91. Codec ID/Info                            : UTF-8 Plain Text
  92. Duration                                 : 2 h 21 min
  93. Bit rate                                 : 39 b/s
  94. Count of elements                        : 1392
  95. Stream size                              : 41.2 KiB (0%)
  96. Title                                    : Fran?§ais (Canada)
  97. Language                                 : French
  98. Default                                  : No
  99. Forced                                   : No
  100. Menu
  101. 00:00:00.000                             : Chapter 1
  102. 00:04:47.911                             : Chapter 2
  103. 00:11:11.546                             : Chapter 3
  104. 00:20:36.903                             : Chapter 4
  105. 00:25:26.901                             : Chapter 5
  106. 00:30:27.201                             : Chapter 6
  107. 00:34:20.351                             : Chapter 7
  108. 00:42:13.824                             : Chapter 8
  109. 00:49:40.105                             : Chapter 9
  110. 00:55:46.679                             : Chapter 10
  111. 00:59:58.306                             : Chapter 11
  112. 01:07:59.204                             : Chapter 12
  113. 01:19:29.853                             : Chapter 13
  114. 01:28:47.452                             : Chapter 14
  115. 01:34:53.777                             : Chapter 15
  116. 01:40:28.028                             : Chapter 16
  117. 01:50:57.198                             : Chapter 17
  118. 02:01:03.220                             : Chapter 18
  119. 02:05:22.604                             : Chapter 19
  120. 02:10:18.068                             : Chapter 20
复制代码




                                       
                                       

                                       
                                       
                                       




回复

使用道具 举报

蓝光币
31
发表于 2021-8-21 10:10:28 | 显示全部楼层
感谢蓝光电影,太赞了
回复 支持 反对

使用道具 举报

蓝光币
1
发表于 2021-8-21 10:48:17 | 显示全部楼层

楼主,我太崇拜你了!我想我是一天也不能离开蓝光电影网。
回复 支持 反对

使用道具 举报

蓝光币
1
发表于 2021-8-21 10:49:30 | 显示全部楼层

既然你诚信诚意的推荐了,那我就勉为其难的看看吧!蓝光电影网不走平凡路。
回复 支持 反对

使用道具 举报

蓝光币
72
发表于 2021-8-21 12:08:00 | 显示全部楼层

感谢楼主的无私分享!要想蓝光电影网好 就靠你我他
回复 支持 反对

使用道具 举报

蓝光币
30
发表于 2021-8-21 20:25:22 | 显示全部楼层

感谢楼主的无私分享!要想蓝光电影网好 就靠你我他
回复 支持 反对

使用道具 举报

蓝光币
2
发表于 2021-8-22 15:13:24 | 显示全部楼层

这东西我收了!谢谢楼主!蓝光电影网真好!
回复 支持 反对

使用道具 举报

蓝光币
14
发表于 2021-8-22 17:11:24 | 显示全部楼层
楼主发贴辛苦了,谢谢楼主分享!我觉得蓝光电影网是注册对了!
回复 支持 反对

使用道具 举报

蓝光币
5
发表于 2021-8-24 09:29:05 | 显示全部楼层
楼主发贴辛苦了,谢谢楼主分享!我觉得蓝光电影网是注册对了!
回复 支持 反对

使用道具 举报

蓝光币
214
发表于 2021-8-24 14:19:49 | 显示全部楼层
楼主,大恩不言谢了!蓝光电影网是最棒的!
回复 支持 反对

使用道具 举报

懒得打字嘛,点击右侧快捷回复 【右侧内容,后台自定义】
您需要登录后才可以回帖 登录 | 立即加入

本版积分规则

Archiver|小黑屋| 蓝光电影网 |网站地图

Copyright © 2021 Comsenz Inc. Powered by 蓝光电影网

蓝光电影网

本站内容由用户自主分享和转载自互联网,转载目的在于传递更多信息,并不代表本网赞同其观点和对其真实性负责。

如有侵权、违反国家法律政策行为,请联系我们,我们会第一时间及时清除和处理!

举报反馈邮箱:[email protected]

快速回复 返回顶部 返回列表