找回密码

蓝光电影网

查看: 1467|回复: 22

[2160p] 黑寡妇 Black.Widow.2021.2160p.WEB-DL.x265.10bit.HDR.DDP5.1.Atmos-NOGRP 22.97GB

[复制链接]
蓝光币
382
发表于 2021-8-11 10:16:25 | 显示全部楼层 |阅读模式


◎译  名 黑孀妇/The Black Widow
◎片  名 Black Widow
◎年  代 2021
◎产  地 美国
◎类  别 行动 / 科幻 / 冒险
◎语  言 英语
◎上映日期 2021(中国大陆) / 2021-07-07(中国香港) / 2021-07-09(美国/美国收集)
◎豆瓣评分 6.3/10 from 98840 users
◎豆瓣链接 https://movie.douban.com/subject/25828589/
◎片  长 133分钟
◎导  演 凯特·绍特兰 Cate Shortland
◎编  剧 雅克·舍费尔 Jac Schaeffer / 内德·本森 Ned Benson / 埃里克·皮尔森 Eric Pearson / 斯坦·李 Stan Lee / 唐·赫克 Don Heck / 唐·里科 Don Rico
◎主  演 斯嘉丽·约翰逊 Scarlett Johansson
       弗洛伦丝·皮尤 Florence Pugh
       蕾切尔·薇兹 Rachel Weisz
       大卫·哈伯 David Harbour
       艾尔·安德森 Ever Anderson
       维奥莱特·麦格劳 Violet McGraw
       欧嘉·柯瑞兰寇 Olga Kurylenko
       O·T·法格本 O.T. Fagbenle
       威廉·赫特 William Hurt
       雷·温斯顿 Ray Winstone
       赖恩·基拉·阿姆斯特朗 Ryan Kiera Armstrong
       米歇尔·李 Michelle Lee
       拉娜·布隆代尔 Nanna Blondell
       Claudia Heinz Claudia Heinz
       露西·詹·穆雷 Lucy Jayne Murray
       乔治亚·柯蒂斯 Georgia Curtis
       约恩·巴特勒 Ione Butler
       库尔特·岳 Kurt Yue
       奥利维尔·里希特斯 Olivier Richters
       安得烈·拜伦 Andrew Byron
       卡利·内勒 Cali Nelle
       罗伯特·普拉尔戈 Robert Pralgo
       贾辛特·布兰肯希普 Jacinte Blankenship
       乔希·亨利 Josh Henry
       阿里娅·布鲁克斯 Aria Brooks
       泰·赫尔利 Ty Hurley
       马里安·洛伦西克 Marian Lorencik
       茱莉亚·路易斯-德瑞弗斯 Julia Louis-Dreyfus
       亚当·普里克特 Adam Prickett
       史蒂芬·萨姆森 Stephen Samson
       乔基姆·斯卡利 Joakim Skarli
       利亚尼·塞缪尔 Liani Samuel
       西蒙娜·齐夫科夫斯卡 Simona Zivkovska
       刘易斯·扬 Lewis Young
◎标  签 漫威 | 斯嘉丽·约翰逊 | 超级豪杰 | 黑孀妇 | 美国 | 科幻 | 行动 | 2021
◎简  介


  一部布满行动戏的特务惊悚片。娜塔莎·罗曼诺夫/黑孀妇遭受与她的曩昔相关的一场危险诡计,将直面自己那些更加黑暗的履历。一股不惜一切要击倒她的气力袭来,娜塔莎必须面临自己在成为复仇者的很久之前那作为特务的过往,和曾阔此外破裂关系。
◎获奖情况
  第7届豆瓣电影年度榜单 ?(2020)
  最值得期待的外语电影
  
  第6届豆瓣电影年度榜单 ?(2019)
  最值得期待的外语电影
  1. Video
  2. ID                                       : 1
  3. Format                                   : HEVC
  4. Format/Info                              : High Efficiency Video Coding
  5. Format profile                           : Main [email protected]@High
  6. HDR format                               : SMPTE ST 2086, HDR10 compatible
  7. Codec ID                                 : V_MPEGH/ISO/HEVC
  8. Duration                                 : 2 h 13 min
  9. Bit rate                                 : 23.8 Mb/s
  10. Width                                    : 3 840 pixels
  11. Height                                   : 1 606 pixels
  12. Display aspect ratio                     : 2.40:1
  13. Frame rate mode                          : Constant
  14. Frame rate                               : 23.976 FPS
  15. Color space                              : YUV
  16. Chroma subsampling                       : 4:2:0 (Type 2)
  17. Bit depth                                : 10 bits
  18. Bits/(Pixel*Frame)                       : 0.161
  19. Stream size                              : 22.3 GiB (97%)
  20. Default                                  : Yes
  21. Forced                                   : No
  22. Color range                              : Limited
  23. Color primaries                          : BT.2020
  24. Transfer characteristics                 : PQ
  25. Matrix coefficients                      : BT.2020 non-constant
  26. Mastering display color primaries        : Display P3
  27. Mastering display luminance              : min: 0.0001 cd/m2, max: 1000 cd/m2
  28. Maximum Content Light Level              : 1152 cd/m2
  29. Maximum Frame-Average Light Level        : 882 cd/m2
  30. Audio
  31. ID                                       : 2
  32. Format                                   : E-AC-3 JOC
  33. Format/Info                              : Enhanced AC-3 with Joint Object Coding
  34. Commercial name                          : Dolby Digital Plus with Dolby Atmos
  35. Codec ID                                 : A_EAC3
  36. Duration                                 : 2 h 13 min
  37. Bit rate mode                            : Constant
  38. Bit rate                                 : 768 kb/s
  39. Channel(s)                               : 6 channels
  40. Channel layout                           : L R C LFE Ls Rs
  41. Sampling rate                            : 48.0 kHz
  42. Frame rate                               : 31.250 FPS (1536 SPF)
  43. Compression mode                         : Lossy
  44. Stream size                              : 735 MiB (3%)
  45. Title                                    : English
  46. Language                                 : English
  47. Service kind                             : Complete Main
  48. Default                                  : No
  49. Forced                                   : No
  50. Complexity index                         : 16
  51. Number of dynamic objects                : 15
  52. Bed channel count                        : 1 channel
  53. Bed channel configuration                : LFE
  54. Text #1
  55. ID                                       : 3
  56. Format                                   : UTF-8
  57. Codec ID                                 : S_TEXT/UTF8
  58. Codec ID/Info                            : UTF-8 Plain Text
  59. Duration                                 : 2 h 12 min
  60. Bit rate                                 : 39 b/s
  61. Count of elements                        : 1306
  62. Stream size                              : 38.8 KiB (0%)
  63. Title                                    : English
  64. Language                                 : English
  65. Default                                  : Yes
  66. Forced                                   : No
  67. Text #2
  68. ID                                       : 4
  69. Format                                   : UTF-8
  70. Codec ID                                 : S_TEXT/UTF8
  71. Codec ID/Info                            : UTF-8 Plain Text
  72. Duration                                 : 2 h 13 min
  73. Bit rate                                 : 46 b/s
  74. Count of elements                        : 1630
  75. Stream size                              : 45.7 KiB (0%)
  76. Title                                    : English [SDH]
  77. Language                                 : English
  78. Default                                  : No
  79. Forced                                   : No
  80. Text #3
  81. ID                                       : 5
  82. Format                                   : UTF-8
  83. Codec ID                                 : S_TEXT/UTF8
  84. Codec ID/Info                            : UTF-8 Plain Text
  85. Duration                                 : 2 h 12 min
  86. Bit rate                                 : 40 b/s
  87. Count of elements                        : 1301
  88. Stream size                              : 39.4 KiB (0%)
  89. Title                                    : Spanish
  90. Language                                 : Spanish
  91. Default                                  : No
  92. Forced                                   : No
  93. Text #4
  94. ID                                       : 6
  95. Format                                   : UTF-8
  96. Codec ID                                 : S_TEXT/UTF8
  97. Codec ID/Info                            : UTF-8 Plain Text
  98. Duration                                 : 2 h 12 min
  99. Bit rate                                 : 43 b/s
  100. Count of elements                        : 1319
  101. Stream size                              : 42.7 KiB (0%)
  102. Title                                    : French Canadian
  103. Language                                 : French
  104. Default                                  : No
  105. Forced                                   : No
  106. Text #5
  107. ID                                       : 7
  108. Format                                   : UTF-8
  109. Codec ID                                 : S_TEXT/UTF8
  110. Codec ID/Info                            : UTF-8 Plain Text
  111. Duration                                 : 2 h 12 min
  112. Bit rate                                 : 35 b/s
  113. Count of elements                        : 1204
  114. Stream size                              : 34.8 KiB (0%)
  115. Title                                    : German
  116. Language                                 : German
  117. Default                                  : No
  118. Forced                                   : No
  119. Text #6
  120. ID                                       : 8
  121. Format                                   : UTF-8
  122. Codec ID                                 : S_TEXT/UTF8
  123. Codec ID/Info                            : UTF-8 Plain Text
  124. Duration                                 : 2 h 12 min
  125. Bit rate                                 : 34 b/s
  126. Count of elements                        : 1299
  127. Stream size                              : 33.8 KiB (0%)
  128. Title                                    : Norwegian
  129. Language                                 : Norwegian
  130. Default                                  : No
  131. Forced                                   : No
  132. Text #7
  133. ID                                       : 9
  134. Format                                   : UTF-8
  135. Codec ID                                 : S_TEXT/UTF8
  136. Codec ID/Info                            : UTF-8 Plain Text
  137. Duration                                 : 2 h 12 min
  138. Bit rate                                 : 35 b/s
  139. Count of elements                        : 1114
  140. Stream size                              : 34.9 KiB (0%)
  141. Title                                    : Dutch
  142. Language                                 : Dutch
  143. Default                                  : No
  144. Forced                                   : No
  145. Text #8
  146. ID                                       : 10
  147. Format                                   : UTF-8
  148. Codec ID                                 : S_TEXT/UTF8
  149. Codec ID/Info                            : UTF-8 Plain Text
  150. Duration                                 : 2 h 12 min
  151. Bit rate                                 : 39 b/s
  152. Count of elements                        : 1297
  153. Stream size                              : 38.5 KiB (0%)
  154. Title                                    : Brazilian Portuguese
  155. Language                                 : Portuguese
  156. Default                                  : No
  157. Forced                                   : No
  158. Text #9
  159. ID                                       : 11
  160. Format                                   : UTF-8
  161. Codec ID                                 : S_TEXT/UTF8
  162. Codec ID/Info                            : UTF-8 Plain Text
  163. Duration                                 : 2 h 12 min
  164. Bit rate                                 : 33 b/s
  165. Count of elements                        : 1256
  166. Stream size                              : 32.4 KiB (0%)
  167. Title                                    : French
  168. Language                                 : French
  169. Default                                  : No
  170. Forced                                   : No
  171. Text #10
  172. ID                                       : 12
  173. Format                                   : UTF-8
  174. Codec ID                                 : S_TEXT/UTF8
  175. Codec ID/Info                            : UTF-8 Plain Text
  176. Duration                                 : 2 h 12 min
  177. Bit rate                                 : 36 b/s
  178. Count of elements                        : 1277
  179. Stream size                              : 35.0 KiB (0%)
  180. Title                                    : European Spanish
  181. Language                                 : Spanish
  182. Default                                  : No
  183. Forced                                   : No
  184. Text #11
  185. ID                                       : 13
  186. Format                                   : UTF-8
  187. Codec ID                                 : S_TEXT/UTF8
  188. Codec ID/Info                            : UTF-8 Plain Text
  189. Duration                                 : 2 h 12 min
  190. Bit rate                                 : 32 b/s
  191. Count of elements                        : 1257
  192. Stream size                              : 31.6 KiB (0%)
  193. Title                                    : Japanese
  194. Language                                 : Japanese
  195. Default                                  : No
  196. Forced                                   : No
  197. Text #12
  198. ID                                       : 14
  199. Format                                   : UTF-8
  200. Codec ID                                 : S_TEXT/UTF8
  201. Codec ID/Info                            : UTF-8 Plain Text
  202. Duration                                 : 2 h 12 min
  203. Bit rate                                 : 35 b/s
  204. Count of elements                        : 1080
  205. Stream size                              : 34.8 KiB (0%)
  206. Title                                    : Swedish
  207. Language                                 : Swedish
  208. Default                                  : No
  209. Forced                                   : No
  210. Text #13
  211. ID                                       : 15
  212. Format                                   : UTF-8
  213. Codec ID                                 : S_TEXT/UTF8
  214. Codec ID/Info                            : UTF-8 Plain Text
  215. Duration                                 : 2 h 12 min
  216. Bit rate                                 : 33 b/s
  217. Count of elements                        : 923
  218. Stream size                              : 32.4 KiB (0%)
  219. Title                                    : Danish
  220. Language                                 : Danish
  221. Default                                  : No
  222. Forced                                   : No
  223. Text #14
  224. ID                                       : 16
  225. Format                                   : UTF-8
  226. Codec ID                                 : S_TEXT/UTF8
  227. Codec ID/Info                            : UTF-8 Plain Text
  228. Duration                                 : 2 h 12 min
  229. Bit rate                                 : 38 b/s
  230. Count of elements                        : 1273
  231. Stream size                              : 37.6 KiB (0%)
  232. Title                                    : Portuguese
  233. Language                                 : Portuguese
  234. Default                                  : No
  235. Forced                                   : No
  236. Text #15
  237. ID                                       : 17
  238. Format                                   : UTF-8
  239. Codec ID                                 : S_TEXT/UTF8
  240. Codec ID/Info                            : UTF-8 Plain Text
  241. Duration                                 : 2 h 12 min
  242. Bit rate                                 : 40 b/s
  243. Count of elements                        : 1278
  244. Stream size                              : 39.1 KiB (0%)
  245. Title                                    : Italian
  246. Language                                 : Italian
  247. Default                                  : No
  248. Forced                                   : No
  249. Text #16
  250. ID                                       : 18
  251. Format                                   : UTF-8
  252. Codec ID                                 : S_TEXT/UTF8
  253. Codec ID/Info                            : UTF-8 Plain Text
  254. Duration                                 : 2 h 12 min
  255. Bit rate                                 : 39 b/s
  256. Count of elements                        : 1300
  257. Stream size                              : 38.3 KiB (0%)
  258. Title                                    : Finnish
  259. Language                                 : Finnish
  260. Default                                  : No
  261. Forced                                   : No
复制代码






                                       
                                       

                                       
                                       
                                       




回复

使用道具 举报

蓝光币
72
发表于 2021-8-21 12:10:58 | 显示全部楼层

论坛不能没有像楼主这样的人才啊!我会一直支持蓝光电影网。
回复 支持 反对

使用道具 举报

蓝光币
1
发表于 2021-8-21 23:59:35 | 显示全部楼层

这个帖子不回对不起自己!我想我是一天也不能离开蓝光电影网。
回复 支持 反对

使用道具 举报

蓝光币
0
发表于 2021-8-23 01:19:48 | 显示全部楼层
楼主发贴辛苦了,谢谢楼主分享!我觉得蓝光电影网是注册对了!
回复 支持 反对

使用道具 举报

蓝光币
0
发表于 2021-8-24 18:24:56 | 显示全部楼层
来看一眼寡姐,只喜欢这个清晰度
回复 支持 反对

使用道具 举报

蓝光币
1
发表于 2021-8-27 15:42:27 | 显示全部楼层
这资源不好找啊 太行了
回复 支持 反对

使用道具 举报

蓝光币
1
发表于 2021-8-27 18:28:48 | 显示全部楼层
楼主发贴辛苦了,谢谢楼主分享!我觉得蓝光电影网是注册对了!
回复 支持 反对

使用道具 举报

蓝光币
1
发表于 2021-8-27 18:30:05 | 显示全部楼层
好资源,好资源好资源
回复 支持 反对

使用道具 举报

蓝光币
3
发表于 2021-8-28 08:16:08 | 显示全部楼层
论坛不能没有像楼主这样的人才啊!我会一直支持电影网。
回复 支持 反对

使用道具 举报

蓝光币
28
发表于 2021-8-28 23:48:29 | 显示全部楼层
非常需要啊
回复 支持 反对

使用道具 举报

懒得打字嘛,点击右侧快捷回复 【右侧内容,后台自定义】
您需要登录后才可以回帖 登录 | 立即加入

本版积分规则

Archiver|小黑屋| 蓝光电影网 |网站地图

Copyright © 2021 Comsenz Inc. Powered by 蓝光电影网

蓝光电影网

本站内容由用户自主分享和转载自互联网,转载目的在于传递更多信息,并不代表本网赞同其观点和对其真实性负责。

如有侵权、违反国家法律政策行为,请联系我们,我们会第一时间及时清除和处理!

举报反馈邮箱:[email protected]

快速回复 返回顶部 返回列表