找回密码

蓝光电影网

查看: 28|回复: 0

[剧情] 神弃之地/恶魔每时每刻 The.Devil.All.the.Time.2020.1080p.WEBRip.x264-RARBG 2.65GB

[复制链接]
蓝光币
733
发表于 2021-8-20 01:10:41 | 显示全部楼层 |阅读模式


◎译  名 神弃之地/恶魔不时辰刻
◎片  名 The Devil All the Time
◎年  代 2020
◎产  地 美国
◎类  别 剧情 / 惊悚
◎语  言 英语
◎上映日期 2020-09-16(美国收集)
◎IMDb评分  8.3/10 from 68 users
◎IMDb链接  https://www.imdb.com/title/tt7395114/
◎豆瓣评分 6.8/10 from 637 users
◎豆瓣链接 https://movie.douban.com/subject/27194336/
◎片  长 138分钟
◎导  演 安东尼奥·坎波斯 Antonio Campos
◎编  剧 安东尼奥·坎波斯 Antonio Campos / 保罗·坎波斯 Paulo Campos / 唐纳德·雷·波洛克 Donald Ray Pollock
◎主  演 汤姆·赫兰德 Tom Holland
       罗伯特·帕丁森 Robert Pattinson
       比尔·斯卡斯加德 Bill Skarsg?rd
       海莉·贝内特 Haley Bennett
       丽莉·吉欧 Riley Keough
       哈利·米尔林 Harry Melling
       塞巴斯蒂安·斯坦 Sebastian Stan
       米娅·华希科沃斯卡 Mia Wasikowska
       伊莱扎·斯坎伦 Eliza Scanlen
       杰森·克拉克 Jason Clarke
       道格拉斯·霍奇斯 Douglas Hodges
       德鲁·斯塔基 Drew Starkey
       吉文·夏普 Given Sharp
       露西·浮士德 Lucy Faust
       艾比·格洛弗 Abby Glover
       克里斯汀格里菲斯 Kristin Griffith
       亚当·弗里斯托 Adam Fristoe
       大卫·马尔登那多 David Maldonado
       莫甘娜·布里吉尔斯 Morganna Bridgers
       马克·杰弗里·米勒 Mark Jeffrey Miller
       迈克尔·哈丁 Michael Harding
       唐纳德·雷·波洛克 Donald Ray Pollock
       格雷戈瑞·凯利 Gregory Kelly
       科里·斯科特·艾伦 Cory Scott Allen
       凯莱布·J·塔格德 Caleb J. Thaggard
       Phillip DeVona
◎标  签 美国 | 犯罪 | 惊悚 | 2020 | 剧情 | 改编 | 悬疑 | Netflix
◎简  介


  该片是一部中西部哥特风电影,安东尼奥·坎帕斯(《克里斯汀》)执导,报告俄亥俄州偏僻之地Knockemstiff,男配角Willard Russell失望地想拯救濒死的妻子,不惜屈就于牺牲,而他的儿子(霍兰德)正从一个在黉舍被凌虐的孩子长大为晓得何时脱手的汉子,脚色包括一对连环杀手佳耦、一个考验人的信仰的传教士、一个败北确当地警长(斯坦)。时候从二战末期到1960年月,地址从南俄亥俄州村落到西维吉尼亚。
  1. Video
  2. ID                                       : 1
  3. Format                                   : AVC
  4. Format/Info                              : Advanced Video Codec
  5. Format profile                           : [email protected]
  6. Format settings                          : CABAC / 4 Ref Frames
  7. Format settings, CABAC                   : Yes
  8. Format settings, Reference frames        : 4 frames
  9. Codec ID                                 : avc1
  10. Codec ID/Info                            : Advanced Video Coding
  11. Duration                                 : 2 h 18 min
  12. Bit rate                                 : 2 500 kb/s
  13. Width                                    : 1 920 pixels
  14. Height                                   : 804 pixels
  15. Display aspect ratio                     : 2.40:1
  16. Frame rate mode                          : Constant
  17. Frame rate                               : 24.000 FPS
  18. Color space                              : YUV
  19. Chroma subsampling                       : 4:2:0
  20. Bit depth                                : 8 bits
  21. Scan type                                : Progressive
  22. Bits/(Pixel*Frame)                       : 0.067
  23. Stream size                              : 2.42 GiB (92%)
  24. Writing library                          : x264 core 152 r2851M ba24899
  25. Encoding settings                        : cabac=1 / ref=4 / deblock=1:-1:-1 / analyse=0x3:0x113 / me=umh / subme=9 / psy=1 / psy_rd=1.00:0.15 / mixed_ref=1 / me_range=24 / chroma_me=1 / trellis=2 / 8x8dct=1 / cqm=0 / deadzone=21,11 / fast_pskip=1 / chroma_qp_offset=-3 / threads=16 / lookahead_threads=4 / sliced_threads=0 / nr=0 / decimate=1 / interlaced=0 / bluray_compat=0 / constrained_intra=0 / bframes=3 / b_pyramid=2 / b_adapt=2 / b_bias=0 / direct=3 / weightb=1 / open_gop=0 / weightp=2 / keyint=250 / keyint_min=25 / scenecut=40 / intra_refresh=0 / rc_lookahead=50 / rc=2pass / mbtree=1 / bitrate=2500 / ratetol=1.0 / qcomp=0.60 / qpmin=0 / qpmax=69 / qpstep=4 / cplxblur=20.0 / qblur=0.5 / vbv_maxrate=31250 / vbv_bufsize=31250 / nal_hrd=none / filler=0 / ip_ratio=1.40 / aq=3:1.00
  26. Encoded date                             : UTC 2020-09-16 07:01:50
  27. Tagged date                              : UTC 2020-09-16 07:01:50
  28. Codec configuration box                  : avcC
  29. Audio
  30. ID                                       : 2
  31. Format                                   : AAC LC
  32. Format/Info                              : Advanced Audio Codec Low Complexity
  33. Codec ID                                 : mp4a-40-2
  34. Duration                                 : 2 h 18 min
  35. Duration_LastFrame                       : -11 ms
  36. Bit rate mode                            : Constant
  37. Bit rate                                 : 224 kb/s
  38. Channel(s)                               : 6 channels
  39. Channel layout                           : C L R Ls Rs LFE
  40. Sampling rate                            : 48.0 kHz
  41. Frame rate                               : 46.875 FPS (1024 SPF)
  42. Compression mode                         : Lossy
  43. Stream size                              : 223 MiB (8%)
  44. Language                                 : English
  45. Default                                  : Yes
  46. Alternate group                          : 1
  47. Encoded date                             : UTC 2020-09-16 07:01:50
  48. Tagged date                              : UTC 2020-09-16 07:01:50
复制代码






                                       
                                       

                                       
                                       
                                       




回复

使用道具 举报

懒得打字嘛,点击右侧快捷回复 【右侧内容,后台自定义】
您需要登录后才可以回帖 登录 | 立即加入

本版积分规则

Archiver|小黑屋| 蓝光电影网 |网站地图

Copyright © 2021 Comsenz Inc. Powered by 蓝光电影网

蓝光电影网

本站内容由用户自主分享和转载自互联网,转载目的在于传递更多信息,并不代表本网赞同其观点和对其真实性负责。

如有侵权、违反国家法律政策行为,请联系我们,我们会第一时间及时清除和处理!

举报反馈邮箱:[email protected]

快速回复 返回顶部 返回列表