找回密码

蓝光电影网

查看: 21|回复: 0

[剧情] 不速之客/陷井边缘 The.Harder.They.Come.1972.1080p.BluRay.x264-PSYCHD 9.84GB

[复制链接]
蓝光币
682
发表于 2020-11-8 10:39:15 | 显示全部楼层 |阅读模式


◎译  名 不速之客/陷井边沿
◎片  名 The Harder They Come
◎年  代 1972
◎产  地 牙买加
◎类  别 剧情 / 音乐 / 犯罪
◎语  言 英语
◎上映日期 1972-01-01
◎IMDb评分  6.9/10 from 5517 users
◎IMDb链接  https://www.imdb.com/title/tt0070155/
◎豆瓣评分 7.4/10 from 355 users
◎豆瓣链接 https://movie.douban.com/subject/1301883/
◎片  长 USA: 120 分钟
◎导  演 佩里·亨泽尔 Perry Henzell
◎编  剧 佩里·亨泽尔 Perry Henzell / 特雷弗·D·罗恩 Trevor D. Rhone
◎主  演 吉米·克里夫 Jimmy Cliff
       Prince Buster
       郝履仁 Li Jen Ho
◎标  签 牙买加 | 音乐 | 雷鬼 | 1970s | 牙买加电影 | CC | 音乐电影 | cult
◎简  介


  70年月,一个贫困潦到的牙买加青年,他很有音乐才能想通出一张颤动的唱片很快摆脱贫困,没有想到被唱片商耍了。一气之下,他走上了贩运毒品的路,今后他的平生发生了庞大的变化……......本片的传奇在于由于它,雷鬼(Reggie)音乐起头传遍全球,改变了风行音乐景观。
  
  本片的电影原声在《文娱周刊》的100部巨大OST评选中荣获第12位。
  1. Video
  2. ID                                       : 1
  3. Format                                   : AVC
  4. Format/Info                              : Advanced Video Codec
  5. Format profile                           : [email protected]
  6. Format settings                          : CABAC / 4 Ref Frames
  7. Format settings, CABAC                   : Yes
  8. Format settings, Reference frames        : 4 frames
  9. Codec ID                                 : V_MPEG4/ISO/AVC
  10. Duration                                 : 1 h 42 min
  11. Bit rate                                 : 13.1 Mb/s
  12. Width                                    : 1 920 pixels
  13. Height                                   : 1 080 pixels
  14. Display aspect ratio                     : 16:9
  15. Frame rate mode                          : Constant
  16. Frame rate                               : 24.000 FPS
  17. Color space                              : YUV
  18. Chroma subsampling                       : 4:2:0
  19. Bit depth                                : 8 bits
  20. Scan type                                : Progressive
  21. Bits/(Pixel*Frame)                       : 0.262
  22. Stream size                              : 9.18 GiB (93%)
  23. Writing library                          : x264 core 148 r2597 e86f3a1
  24. Encoding settings                        : cabac=1 / ref=4 / deblock=1:-3:-3 / analyse=0x3:0x113 / me=umh / subme=8 / psy=1 / psy_rd=1.15:0.00 / mixed_ref=1 / me_range=16 / chroma_me=1 / trellis=1 / 8x8dct=1 / cqm=0 / deadzone=21,11 / fast_pskip=1 / chroma_qp_offset=-2 / threads=24 / lookahead_threads=4 / sliced_threads=0 / nr=0 / decimate=1 / interlaced=0 / bluray_compat=0 / constrained_intra=0 / bframes=3 / b_pyramid=2 / b_adapt=2 / b_bias=0 / direct=3 / weightb=1 / open_gop=0 / weightp=2 / keyint=240 / keyint_min=24 / scenecut=40 / intra_refresh=0 / rc_lookahead=50 / rc=2pass / mbtree=1 / bitrate=13060 / ratetol=1.0 / qcomp=0.60 / qpmin=0 / qpmax=69 / qpstep=4 / cplxblur=20.0 / qblur=0.5 / ip_ratio=1.40 / aq=3:0.80
  25. Language                                 : English
  26. Default                                  : Yes
  27. Forced                                   : No
  28. Statistics Tags Issue                    : no_variable_data 1970-01-01 00:00:00 / no_variable_data 2010-02-22 21:41:29
  29. FromStats_BitRate                        : 13058722
  30. FromStats_Duration                       : 01:42:47.959000000
  31. FromStats_FrameCount                     : 148031
  32. FromStats_StreamSize                     : 10068208396

  33. Audio
  34. ID                                       : 2
  35. Format                                   : AC-3
  36. Format/Info                              : Audio Coding 3
  37. Commercial name                          : Dolby Digital
  38. Codec ID                                 : A_AC3
  39. Duration                                 : 1 h 42 min
  40. Bit rate mode                            : Constant
  41. Bit rate                                 : 640 kb/s
  42. Channel(s)                               : 2 channels
  43. Channel layout                           : L R
  44. Sampling rate                            : 48.0 kHz
  45. Frame rate                               : 31.250 FPS (1536 SPF)
  46. Compression mode                         : Lossy
  47. Stream size                              : 471 MiB (5%)
  48. Language                                 : English
  49. Service kind                             : Complete Main
  50. Default                                  : Yes
  51. Forced                                   : No
  52. Statistics Tags Issue                    : no_variable_data 1970-01-01 00:00:00 / no_variable_data 2010-02-22 21:41:29
  53. FromStats_BitRate                        : 640000
  54. FromStats_Duration                       : 01:42:45.888000000
  55. FromStats_FrameCount                     : 192684
  56. FromStats_StreamSize                     : 493271040

  57. Text #1
  58. ID                                       : 3
  59. Format                                   : UTF-8
  60. Codec ID                                 : S_TEXT/UTF8
  61. Codec ID/Info                            : UTF-8 Plain Text
  62. Language                                 : English
  63. Default                                  : No
  64. Forced                                   : No
  65. Statistics Tags Issue                    : no_variable_data 1970-01-01 00:00:00 / no_variable_data 2010-02-22 21:41:29
  66. FromStats_BitRate                        : 54
  67. FromStats_Duration                       : 01:41:57.291000000
  68. FromStats_FrameCount                     : 1451
  69. FromStats_StreamSize                     : 41684

  70. Text #2
  71. ID                                       : 4
  72. Format                                   : UTF-8
  73. Codec ID                                 : S_TEXT/UTF8
  74. Codec ID/Info                            : UTF-8 Plain Text
  75. Title                                    : SDH
  76. Language                                 : English
  77. Default                                  : No
  78. Forced                                   : No
  79. Statistics Tags Issue                    : no_variable_data 1970-01-01 00:00:00 / no_variable_data 2010-02-22 21:41:29
  80. FromStats_BitRate                        : 54
  81. FromStats_Duration                       : 01:42:09.041000000
  82. FromStats_FrameCount                     : 1459
  83. FromStats_StreamSize                     : 41735

  84. Menu
  85. 00:00:00.000                             : en:00:00:00.000
  86. 00:04:44.500                             : en:00:04:44.500
  87. 00:11:39.958                             : en:00:11:39.958
  88. 00:17:25.208                             : en:00:17:25.208
  89. 00:23:57.250                             : en:00:23:57.250
  90. 00:37:17.875                             : en:00:37:17.875
  91. 00:45:11.167                             : en:00:45:11.167
  92. 00:56:51.250                             : en:00:56:51.250
  93. 01:06:28.000                             : en:01:06:28.000
  94. 01:14:44.250                             : en:01:14:44.250
  95. 01:23:46.458                             : en:01:23:46.458
  96. 01:30:42.542                             : en:01:30:42.542
  97. 01:41:37.042                             : en:01:41:37.042
复制代码





                                       
                                       

                                       
                                       
                                       




回复

使用道具 举报

懒得打字嘛,点击右侧快捷回复 【右侧内容,后台自定义】
您需要登录后才可以回帖 登录 | 立即加入

本版积分规则

Archiver|小黑屋| 蓝光电影网 |网站地图

Copyright © 2021 Comsenz Inc. Powered by 蓝光电影网

蓝光电影网

本站内容由用户自主分享和转载自互联网,转载目的在于传递更多信息,并不代表本网赞同其观点和对其真实性负责。

如有侵权、违反国家法律政策行为,请联系我们,我们会第一时间及时清除和处理!

举报反馈邮箱:[email protected]

快速回复 返回顶部 返回列表