找回密码

蓝光电影网

查看: 10|回复: 0

[剧情] 美味情缘 No.Reservations.2007.1080p.BluRay.x264.DD5.1-FGT 7.94GB

[复制链接]
蓝光币
623
发表于 2020-11-8 09:16:48 | 显示全部楼层 |阅读模式


◎译  名 美味情缘/Mostly Martha/Untitled Scott Hicks Film/不快餐客/不速食客/料理绝配/恋爱赏味期/美味不设防/美味关系
◎片  名 No Reservations
◎年  代 2007
◎产  地 美国,澳大利亚
◎类  别 剧情 / 笑剧 / 恋爱
◎语  言 英语
◎上映日期 2007-07-27(美国)
◎IMDb评分  6.3/10 from 69975 users
◎IMDb链接  https://www.imdb.com/title/tt0481141/
◎豆瓣评分 6.9/10 from 49796 users
◎豆瓣链接 https://movie.douban.com/subject/1947144/
◎片  长 104分钟
◎导  演 斯科特·希克斯 Scott Hicks
◎编  剧 卡萝·富克斯 Carol Fuchs / 桑德拉·内特尔贝克 Sandra Nettelbeck
◎主  演 凯瑟琳·泽塔-琼斯 Catherine Zeta-Jones
       艾伦·艾克哈特 Aaron Eckhart
       阿比盖尔·布雷斯林 Abigail Breslin
       派翠西娅·克拉克森 Patricia Clarkson
       珍妮·瓦德 Jenny Wade
       Patrick Zeller
       莉莉·拉贝 Lily Rabe
       迪尔巴拉·莫洛伊 Dearbhla Molloy
       佐伊·克罗维兹 Zo? Kravitz
       凯瑟琳·西吉斯蒙德 Katherine Sigismund
       David Wheir
       西利亚·维斯顿 Celia Weston
       Rob Leo Roy
       马特·索维托 Matt Servitto
       菲利普·格拉斯 Philip Glass
       阿里加·巴利吉斯 Arija Bareikis
       鲍勃·巴拉班 Bob Balaban
       布莱恩·F·奥博恩 Brian F. O'Byrne
       托尼·德文 Tony Devon
       富尔·切切里 Fulvio Cecere
       约翰·麦克马丁 John McMartin
◎标  签 恋爱 | 美国 | 笑剧 | 美食 | 2007 | 温情 | 浪漫 | 剧情
◎简  介


  凯特(凯瑟琳·泽塔-琼斯 Catherine Zeta-Jones 饰)天生丽质,是一所餐厅里精采的主厨,她是个实足的工作狂,由于工作她的生活变得非常呆板,没有一丝火花。对自己的技术很是自傲的她经常都对峙己见,老板只好逼迫她去看心理医生。
  
  凯特的妹妹因车祸而去世了,留下年幼的女儿祖需要凯特照顾。妈妈分开后,祖变 得越来越封锁。不管凯特怎样尽力,祖还是与阿姨连结间隔。
  
  此时餐厅里请来了新的厨师尼克(艾伦·艾克哈特 Aaron Eckhart  饰),工作态度完全有别与凯特,这使凯特没法接管,但他却有本事使不喜好吃正餐的祖乖乖吃饭。凯特不能差池尼克另眼相看,尔后由于祖的关系他们约会渐多,凯特与尼克之间也发生了奥妙的情缘,就连凯特与祖之间的关系也大大改良了。
  
  但这时,两人在工作上却出现了分歧,豪情遭到了应战……
  1. Video
  2. ID                                       : 1
  3. Format                                   : AVC
  4. Format/Info                              : Advanced Video Codec
  5. Format profile                           : [email protected]
  6. Format settings                          : CABAC / 5 Ref Frames
  7. Format settings, CABAC                   : Yes
  8. Format settings, Reference frames        : 5 frames
  9. Codec ID                                 : V_MPEG4/ISO/AVC
  10. Duration                                 : 1 h 44 min
  11. Bit rate                                 : 10.3 Mb/s
  12. Width                                    : 1 920 pixels
  13. Height                                   : 800 pixels
  14. Display aspect ratio                     : 2.40:1
  15. Frame rate mode                          : Constant
  16. Frame rate                               : 23.976 FPS
  17. Color space                              : YUV
  18. Chroma subsampling                       : 4:2:0
  19. Bit depth                                : 8 bits
  20. Scan type                                : Progressive
  21. Bits/(Pixel*Frame)                       : 0.279
  22. Stream size                              : 7.48 GiB (94%)
  23. Title                                    : No.Reservations.2007.1080p.BluRay.x264.DD5.1-FGT
  24. Writing library                          : x264 core 57 svn-721M
  25. Encoding settings                        : cabac=1 / ref=5 / deblock=1:-3:-3 / analyse=0x3:0x133 / me=umh / subme=7 / brdo=1 / mixed_ref=1 / me_range=16 / chroma_me=1 / trellis=1 / 8x8dct=1 / cqm=2 / deadzone=21,11 / chroma_qp_offset=0 / threads=6 / nr=0 / decimate=0 / mbaff=0 / bframes=3 / b_pyramid=1 / b_adapt=1 / b_bias=0 / direct=3 / wpredb=1 / bime=1 / keyint=250 / keyint_min=25 / scenecut=40(pre) / rc=2pass / bitrate=10264 / ratetol=1.0 / rceq='blurCplx^(1-qComp)' / qcomp=0.60 / qpmin=10 / qpmax=51 / qpstep=4 / cplxblur=20.0 / qblur=0.5 / ip_ratio=1.40 / pb_ratio=1.30 / aq=1:0.5:0.0
  26. Language                                 : English
  27. Default                                  : Yes
  28. Forced                                   : No

  29. Audio
  30. ID                                       : 2
  31. Format                                   : AC-3
  32. Format/Info                              : Audio Coding 3
  33. Commercial name                          : Dolby Digital
  34. Codec ID                                 : A_AC3
  35. Duration                                 : 1 h 44 min
  36. Bit rate mode                            : Constant
  37. Bit rate                                 : 640 kb/s
  38. Channel(s)                               : 6 channels
  39. Channel layout                           : L R C LFE Ls Rs
  40. Sampling rate                            : 48.0 kHz
  41. Frame rate                               : 31.250 FPS (1536 SPF)
  42. Compression mode                         : Lossy
  43. Stream size                              : 478 MiB (6%)
  44. Title                                    : No.Reservations.2007.1080p.BluRay.x264.DD5.1-FGT
  45. Language                                 : English
  46. Service kind                             : Complete Main
  47. Default                                  : No
  48. Forced                                   : No

  49. Text
  50. ID                                       : 3
  51. Format                                   : UTF-8
  52. Codec ID                                 : S_TEXT/UTF8
  53. Codec ID/Info                            : UTF-8 Plain Text
  54. Duration                                 : 1 h 39 min
  55. Bit rate                                 : 56 b/s
  56. Count of elements                        : 1091
  57. Stream size                              : 40.9 KiB (0%)
  58. Language                                 : English
  59. Default                                  : Yes
  60. Forced                                   : No

  61. Menu
  62. 00:00:00.000                             : :Chapter 01
  63. 00:06:09.201                             : :Chapter 02
  64. 00:10:31.963                             : :Chapter 03
  65. 00:15:03.734                             : :Chapter 04
  66. 00:19:37.843                             : :Chapter 05
  67. 00:24:45.482                             : :Chapter 06
  68. 00:29:40.111                             : :Chapter 07
  69. 00:34:06.877                             : :Chapter 08
  70. 00:37:52.768                             : :Chapter 09
  71. 00:41:38.829                             : :Chapter 10
  72. 00:47:39.356                             : :Chapter 11
  73. 00:53:21.530                             : :Chapter 12
  74. 00:57:55.804                             : :Chapter 13
  75. 01:01:16.671                             : :Chapter 14
  76. 01:04:28.697                             : :Chapter 15
  77. 01:08:22.930                             : :Chapter 16
  78. 01:13:53.929                             : :Chapter 17
  79. 01:17:35.484                             : :Chapter 18
  80. 01:23:08.984                             : :Chapter 19
  81. 01:26:10.832                             : :Chapter 20
  82. 01:30:35.095                             : :Chapter 21
  83. 01:33:36.609                             : :Chapter 22
  84. 01:36:26.447                             : :Chapter 23
  85. 01:40:27.688                             : :Chapter 24
  86. 01:44:18.710                             : :Chapter 25
复制代码






                                       
                                       

                                       
                                       
                                       




回复

使用道具 举报

懒得打字嘛,点击右侧快捷回复 【右侧内容,后台自定义】
您需要登录后才可以回帖 登录 | 立即加入

本版积分规则

Archiver|小黑屋| 蓝光电影网 |网站地图

Copyright © 2021 Comsenz Inc. Powered by 蓝光电影网

蓝光电影网

本站内容由用户自主分享和转载自互联网,转载目的在于传递更多信息,并不代表本网赞同其观点和对其真实性负责。

如有侵权、违反国家法律政策行为,请联系我们,我们会第一时间及时清除和处理!

举报反馈邮箱:[email protected]

快速回复 返回顶部 返回列表