找回密码

蓝光电影网

查看: 14|回复: 0

[剧情] 尤利西斯:黑暗的奥德赛/暗黑解码战 Ulysses.A.Dark.Odyssey.2018.1080p.BluRay.x264.DTS-HD.MA.5.1-FGT 10.96GB

[复制链接]
蓝光币
519
发表于 2020-11-8 09:07:41 | 显示全部楼层 |阅读模式


◎译  名 尤利西斯:黑暗的奥德赛/暗黑解码战
◎片  名 Ulysses: A Dark Odyssey
◎年  代 2018
◎产  地 意大利
◎类  别 剧情 / 行动
◎语  言 英语
◎上映日期 2018-06-14(意大利)
◎IMDb评分  6/10 from 1156 users
◎IMDb链接  https://www.imdb.com/title/tt5581752/
◎豆瓣评分 /10 from 0 users
◎豆瓣链接 https://movie.douban.com/subject/30155114/
◎编  剧 詹姆斯·科因 James Coyne
◎主  演 丹尼·格洛弗 Danny Glover
       安娜玛丽亚·玛琳卡 Anamaria Marinca
       乌多·基尔 Udo Kier
       夏洛特·柯克 Charlotte Kirk
       Walter Nudo
◎标  签 意大利 | 2018 | 行动 | 剧情 | 犯罪 | 未来 | 意大利电影 | 豪杰-奥德修斯
◎简  介


  失憶的軍人–尤利西斯,在邊遠地區被软禁了七年,受盡熬煎、經歷疾苦和創傷的他,從中東戰爭中逃脫返家,發現他的妻子–佩內洛普不見了,擔心她的失蹤與黑社會有關,尤利西斯開始在這座城市尋找他心愛的妻子,他能找到他的妻子嗎?這一路上又會發生什麼严重轉變?
  1. Video
  2. ID                                       : 1
  3. Format                                   : AVC
  4. Format/Info                              : Advanced Video Codec
  5. Format profile                           : [email protected]
  6. Format settings                          : CABAC / 4 Ref Frames
  7. Format settings, CABAC                   : Yes
  8. Format settings, ReFrames                : 4 frames
  9. Codec ID                                 : V_MPEG4/ISO/AVC
  10. Duration                                 : 1 h 55 min
  11. Bit rate                                 : 11.5 Mb/s
  12. Width                                    : 1 920 pixels
  13. Height                                   : 804 pixels
  14. Display aspect ratio                     : 2.40:1
  15. Frame rate mode                          : Constant
  16. Frame rate                               : 24.000 FPS
  17. Color space                              : YUV
  18. Chroma subsampling                       : 4:2:0
  19. Bit depth                                : 8 bits
  20. Scan type                                : Progressive
  21. Bits/(Pixel*Frame)                       : 0.310
  22. Stream size                              : 9.24 GiB (84%)
  23. Title                                    : Ulysses.A.Dark.Odyssey.2018.1080p.BluRay.x264.DTS-HD.MA.5.1-FGT
  24. Writing library                          : x264 core 148 r2795M aaa9aa8
  25. Encoding settings                        : cabac=1 / ref=4 / deblock=1:-2:-2 / analyse=0x3:0x113 / me=umh / subme=9 / psy=1 / psy_rd=1.00:0.15 / mixed_ref=1 / me_range=16 / chroma_me=1 / trellis=2 / 8x8dct=1 / cqm=0 / deadzone=21,11 / fast_pskip=1 / chroma_qp_offset=-3 / threads=24 / lookahead_threads=3 / sliced_threads=0 / nr=0 / decimate=1 / interlaced=0 / bluray_compat=0 / constrained_intra=0 / bframes=3 / b_pyramid=2 / b_adapt=1 / b_bias=0 / direct=3 / weightb=1 / open_gop=0 / weightp=2 / keyint=250 / keyint_min=25 / scenecut=40 / intra_refresh=0 / rc_lookahead=50 / rc=2pass / mbtree=1 / bitrate=11500 / ratetol=1.0 / qcomp=0.60 / qpmin=0 / qpmax=69 / qpstep=4 / cplxblur=20.0 / qblur=0.5 / vbv_maxrate=31250 / vbv_bufsize=31250 / nal_hrd=none / filler=0 / ip_ratio=1.40 / aq=1:1.00
  26. Language                                 : English
  27. Default                                  : Yes
  28. Forced                                   : No
  29. Audio
  30. ID                                       : 2
  31. Format                                   : DTS XLL
  32. Format/Info                              : Digital Theater Systems
  33. Commercial name                          : DTS-HD Master Audio
  34. Codec ID                                 : A_DTS
  35. Duration                                 : 1 h 55 min
  36. Bit rate mode                            : Variable
  37. Bit rate                                 : 2 136 kb/s
  38. Channel(s)                               : 6 channels
  39. Channel layout                           : C L R Ls Rs LFE
  40. Sampling rate                            : 48.0 kHz
  41. Frame rate                               : 93.750 FPS (512 SPF)
  42. Bit depth                                : 16 bits
  43. Compression mode                         : Lossless
  44. Stream size                              : 1.72 GiB (16%)
  45. Title                                    : Ulysses.A.Dark.Odyssey.2018.1080p.BluRay.x264.DTS-HD.MA.5.1-FGT
  46. Language                                 : English
  47. Default                                  : No
  48. Forced                                   : No
  49. Menu
  50. 00:00:00.000                             : en:Chapter 01
  51. 00:08:54.083                             : en:Chapter 02
  52. 00:18:33.333                             : en:Chapter 03
  53. 00:29:04.416                             : en:Chapter 04
  54. 00:37:50.250                             : en:Chapter 05
  55. 00:50:23.666                             : en:Chapter 06
  56. 01:00:00.875                             : en:Chapter 07
  57. 01:06:57.708                             : en:Chapter 08
  58. 01:20:38.458                             : en:Chapter 09
  59. 01:29:43.541                             : en:Chapter 10
  60. 01:36:45.125                             : en:Chapter 11
  61. 01:46:58.083                             : en:Chapter 12
复制代码






                                       
                                       

                                       
                                       
                                       




回复

使用道具 举报

懒得打字嘛,点击右侧快捷回复 【右侧内容,后台自定义】
您需要登录后才可以回帖 登录 | 立即加入

本版积分规则

Archiver|小黑屋| 蓝光电影网 |网站地图

Copyright © 2021 Comsenz Inc. Powered by 蓝光电影网

蓝光电影网

本站内容由用户自主分享和转载自互联网,转载目的在于传递更多信息,并不代表本网赞同其观点和对其真实性负责。

如有侵权、违反国家法律政策行为,请联系我们,我们会第一时间及时清除和处理!

举报反馈邮箱:[email protected]

快速回复 返回顶部 返回列表