找回密码

蓝光电影网

查看: 21|回复: 0

[剧情] 伴你高飞/回南 Fly.Away.Home.1996.1080p.BluRay.x264.DD5.1-FGT 8.09GB

[复制链接]
蓝光币
509
发表于 2020-11-8 08:56:18 | 显示全部楼层 |阅读模式


◎译  名 伴你高飞/回南/返家十万里/飞向故乡
◎片  名 Fly Away Home
◎年  代 1996
◎产  地 美国
◎类  别 剧情 / 家庭 / 冒险
◎语  言 英语
◎上映日期 1996-09-13
◎IMDb评分  6.8/10 from 23314 users
◎IMDb链接  https://www.imdb.com/title/tt0116329/
◎豆瓣评分 8.9/10 from 33285 users
◎豆瓣链接 https://movie.douban.com/subject/1292642/
◎片  长 107 分钟
◎导  演 卡罗尔·巴拉德 Carroll Ballard
◎编  剧 罗伯特·罗达特 Robert Rodat / Vince McKewin
◎主  演 安娜·帕奎因 Anna Paquin
       杰夫·丹尼尔斯 Jeff Daniels
       达娜·德拉尼 Dana Delany
       特里·金尼 Terry Kinney
       霍尔特·格拉汉姆 Holter Graham
◎标  签 自然 | 温情 | 亲情 | 动物 | 美国 | 长大 | 温馨 | 生态
◎简  介


  13岁的艾米(安娜·帕奎因 Anna Paquin 饰)在一场交通变乱中落空了母亲,只好被送到与母亲仳离多年的父亲(杰夫·丹尼尔斯 Jeff Daniels 饰)身旁。父亲经营着一座农场,全日琢磨各类希奇怪僻的发现,面临已经长大的艾米难免手足无措,二人最初的相处陌生而隔膜。艾米整理好失恃之痛,也尽力顺应农场生活,一日在一片树丛发现一窝被抛弃的大雁蛋,她谨慎将它们捧回家里,并成功孵出一窝小雁,可是出于政府野雁不成以野生的规定,艾米必必要令这些小雁放归自然。父亲想出了奇妙的主张帮助艾米,他脱手为她建造了一架滑翔机,让她带着小雁学会翱翔,然后在迁移季节一路护送“雁妈妈”艾米率领小雁们飞向安大略湖,在这个进程中,一对父女的心也起头牢牢连在一路……
◎获奖情况
  第69届奥斯卡金像奖 ?(1997)
  最好摄影(提名) 凯莱布·德夏奈尔
  1. Video
  2. ID                                       : 1
  3. Format                                   : AVC
  4. Format/Info                              : Advanced Video Codec
  5. Format profile                           : [email protected]
  6. Format settings                          : CABAC / 5 Ref Frames
  7. Format settings, CABAC                   : Yes
  8. Format settings, Reference frames        : 5 frames
  9. Codec ID                                 : V_MPEG4/ISO/AVC
  10. Duration                                 : 1 h 46 min
  11. Bit rate                                 : 9 971 kb/s
  12. Width                                    : 1 920 pixels
  13. Height                                   : 1 044 pixels
  14. Display aspect ratio                     : 1.85:1
  15. Frame rate mode                          : Constant
  16. Frame rate                               : 23.976 (24000/1001/189150) FPS
  17. Color space                              : YUV
  18. Chroma subsampling                       : 4:2:0
  19. Bit depth                                : 8 bits
  20. Scan type                                : Progressive
  21. Bits/(Pixel*Frame)                       : 0.207
  22. Stream size                              : 7.45 GiB (92%)
  23. Writing library                          : x264 core 142 r2431+42 c69a006 tMod [[email protected] X86_64]
  24. Encoding settings                        : cabac=1 / ref=5 / deblock=1:-3:-3 / analyse=0x3:0x113 / me=umh / subme=11 / psy=1 / fade_compensate=0.00 / psy_rd=1.00:0.05 / mixed_ref=1 / me_range=48 / chroma_me=1 / trellis=2 / 8x8dct=1 / cqm=0 / deadzone=21,11 / fast_pskip=0 / chroma_qp_offset=-2 / threads=12 / lookahead_threads=2 / sliced_threads=0 / nr=0 / decimate=1 / interlaced=0 / bluray_compat=0 / constrained_intra=0 / fgo=0 / bframes=8 / b_pyramid=2 / b_adapt=2 / b_bias=0 / direct=3 / weightb=1 / open_gop=0 / weightp=2 / keyint=250 / keyint_min=23 / scenecut=40 / intra_refresh=0 / rc_lookahead=40 / rc=crf / mbtree=0 / crf=21.3000 / qcomp=0.60 / qpmin=0:0:0 / qpmax=69:69:69 / qpstep=4 / vbv_maxrate=40000 / vbv_bufsize=30000 / crf_max=0.0 / nal_hrd=none / filler=0 / ip_ratio=1.40 / pb_ratio=1.30 / aq=3:1.00 / aq-sensitivity=10.00 / aq-factor=1.00:1.00:1.00 / aq2=0 / aq3=0
  25. Default                                  : Yes
  26. Forced                                   : No
  27. Color range                              : Limited
  28. Matrix coefficients                      : BT.709

  29. Audio
  30. ID                                       : 2
  31. Format                                   : AC-3
  32. Format/Info                              : Audio Coding 3
  33. Commercial name                          : Dolby Digital
  34. Codec ID                                 : A_AC3
  35. Duration                                 : 1 h 46 min
  36. Bit rate mode                            : Constant
  37. Bit rate                                 : 640 kb/s
  38. Channel(s)                               : 6 channels
  39. Channel layout                           : L R C LFE Ls Rs
  40. Sampling rate                            : 48.0 kHz
  41. Frame rate                               : 31.250 FPS (1536 SPF)
  42. Compression mode                         : Lossy
  43. Stream size                              : 490 MiB (6%)
  44. Language                                 : English
  45. Service kind                             : Complete Main
  46. Default                                  : Yes
  47. Forced                                   : No

  48. Menu
  49. 00:00:00.000                             : en:00:00:00.000
  50. 00:07:15.184                             : en:00:07:15.184
  51. 00:14:05.427                             : en:00:14:05.427
  52. 00:19:41.346                             : en:00:19:41.346
  53. 00:23:29.157                             : en:00:23:29.157
  54. 00:31:02.360                             : en:00:31:02.360
  55. 00:37:22.490                             : en:00:37:22.490
  56. 00:44:20.157                             : en:00:44:20.157
  57. 00:50:42.080                             : en:00:50:42.080
  58. 00:58:16.826                             : en:00:58:16.826
  59. 01:01:07.580                             : en:01:01:07.580
  60. 01:11:36.267                             : en:01:11:36.267
  61. 13:05:21.859                             : en:13:05:21.859 / en:13:05:21.859 / en:13:05:21.859
复制代码








                                       
                                       

                                       
                                       
                                       




回复

使用道具 举报

懒得打字嘛,点击右侧快捷回复 【右侧内容,后台自定义】
您需要登录后才可以回帖 登录 | 立即加入

本版积分规则

Archiver|小黑屋| 蓝光电影网 |网站地图

Copyright © 2021 Comsenz Inc. Powered by 蓝光电影网

蓝光电影网

本站内容由用户自主分享和转载自互联网,转载目的在于传递更多信息,并不代表本网赞同其观点和对其真实性负责。

如有侵权、违反国家法律政策行为,请联系我们,我们会第一时间及时清除和处理!

举报反馈邮箱:[email protected]

快速回复 返回顶部 返回列表