找回密码

蓝光电影网

查看: 13|回复: 0

[剧情] 纽约的秋天/纽约深秋 Autumn.in.New.York.2000.1080p.BluRay.x264.DD5.1-FGT 8.81GB

[复制链接]
蓝光币
511
发表于 2020-11-8 08:50:20 | 显示全部楼层 |阅读模式


◎译  名 纽约的秋天/纽约深秋
◎片  名 Autumn in New York
◎年  代 2000
◎产  地 美国
◎类  别 剧情 / 恋爱
◎语  言 英语
◎上映日期 2000-08-11
◎IMDb评分  5.7/10 from 24701 users
◎IMDb链接  https://www.imdb.com/title/tt0174480/
◎豆瓣评分 6.4/10 from 3762 users
◎豆瓣链接 https://movie.douban.com/subject/1299824/
◎片  长 103 分钟
◎导  演 陈冲 Joan Chen
◎主  演 薇诺娜·瑞德 Winona Ryder
       理查·基尔 Richard Gere
       安东尼·拉帕格利亚 Anthony LaPaglia
       雪莉·斯蒂琳费尔德 Sherry Stringfield
       维拉·法米加 Vera Farmiga
       山姆·特拉梅尔 Sam Trammell
       瑞秋·尼科尔斯 Rachel Nichols
       吉尔·亨内斯 Jill Hennessy
       伊莲妮·斯楚奇 Elaine Stritch
       Lindsay Huff
       Daniella Canterman
       Timothy Huang
       托妮·赛普里斯 Tawny Cypress
       Deanna Canterman
       Dan Camins
       凯瑟琳戈德堡 Kathleen Goldpaugh
       玛丽·贝丝·赫特 Mary Beth Hurt
       托碧波塞尔 Toby Poser
       凯利·罗查 Kali Rocha
       J·K·西蒙斯 J.K. Simmons
       丹妮娜·范·格拉斯 Daniella Van Graas
       Pamela Twyble
       莉萨·拉皮拉 Liza Lapira
◎标  签 恋爱 | 美国 | 美国电影 | RichardGere | WinonaRyder | 陈冲 | 2000 | Winona_Ryder
◎简  介


  Will Keane(理查·基尔 Richard Gere 饰)是纽约的钻石王老五,年近50的他极具汉子魅力,用浅笑和结交令自己的财富一向翻倍,而他和城中女人的关系更是扑朔迷离。他习惯天天带分歧的女人都自己的饭馆吃饭、然后睡觉、翌日分手,循环往复。直到他碰到了19岁的女孩儿Charlotte(薇诺娜·瑞德 Winona Ryder 饰),她的年重活跃、天真才华令他倾倒。
  
  她在他的饭馆举行20岁生日会,他赠她最好的洋酒;晓得她最爱设想帽子,便请她替与自己列席慈善晚会的女伴设想一个特此外帽子,到了当晚却携她列席;他们很快发生关系,他如同平常一样,想在翌日跟她摊牌,没想到她间接说她晓得这个成果,但他不用担忧她会纠缠他,由于她只剩下一年的生命。
  
  得了天赋性心脏病的Charlotte自幼便落空了怙恃,跟从着酗酒的祖母长大,一向孤独,直到碰见了Will;而昔时Will曾和Charlotte的母亲相爱,他发现自己已经爱上了Charlotte,而且惧怕落空她。面临所剩无几的时候,他们该怎样面临恋爱和人生?
  1. Video
  2. ID                                       : 1
  3. Format                                   : AVC
  4. Format/Info                              : Advanced Video Codec
  5. Format profile                           : [email protected]
  6. Format settings, CABAC                   : Yes
  7. Format settings, ReFrames                : 4 frames
  8. Codec ID                                 : V_MPEG4/ISO/AVC
  9. Duration                                 : 1h 45mn
  10. Bit rate                                 : 11.5 Mbps
  11. Width                                    : 1 920 pixels
  12. Height                                   : 1 040 pixels
  13. Display aspect ratio                     : 1.85:1
  14. Frame rate mode                          : Constant
  15. Frame rate                               : 23.976 fps
  16. Color space                              : YUV
  17. Chroma subsampling                       : 4:2:0
  18. Bit depth                                : 8 bits
  19. Scan type                                : Progressive
  20. Bits/(Pixel*Frame)                       : 0.240
  21. Stream size                              : 8.30 GiB (94%)
  22. Writing library                          : x264 core 98 r1649 20cbe10
  23. Encoding settings                        : cabac=1 / ref=4 / deblock=1:0:-1 / analyse=0x3:0x133 / me=umh / subme=9 / psy=1 / psy_rd=1.00:0.00 / mixed_ref=1 / me_range=24 / chroma_me=1 / trellis=1 / 8x8dct=1 / cqm=0 / deadzone=21,11 / fast_pskip=0 / chroma_qp_offset=-2 / threads=9 / sliced_threads=0 / nr=0 / decimate=1 / interlaced=0 / constrained_intra=0 / bframes=3 / b_pyramid=2 / b_adapt=2 / b_bias=0 / direct=3 / weightb=1 / weightp=2 / keyint=200 / keyint_min=15 / scenecut=40 / intra_refresh=0 / rc_lookahead=40 / rc=2pass / mbtree=1 / bitrate=11487 / ratetol=1.0 / qcomp=0.60 / qpmin=10 / qpmax=51 / qpstep=4 / cplxblur=20.0 / qblur=0.5 / ip_ratio=1.40 / aq=1:1.00
  24. Language                                 : English
  25. Default                                  : Yes
  26. Forced                                   : No
  27. Audio
  28. ID                                       : 2
  29. Format                                   : AC-3
  30. Format/Info                              : Audio Coding 3
  31. Mode extension                           : CM (complete main)
  32. Format settings, Endianness              : Big
  33. Codec ID                                 : A_AC3
  34. Duration                                 : 1h 45mn
  35. Bit rate mode                            : Constant
  36. Bit rate                                 : 448 Kbps
  37. Channel(s)                               : 6 channels
  38. Channel positions                        : Front: L C R, Side: L R, LFE
  39. Sampling rate                            : 48.0 KHz
  40. Compression mode                         : Lossy
  41. Stream size                              : 339 MiB (4%)
  42. Language                                 : English
  43. Default                                  : Yes
  44. Forced                                   : No
  45. Menu
  46. 00:00:00.000                             : :Chapter 01
  47. 00:08:34.805                             : :Chapter 02
  48. 00:11:47.748                             : :Chapter 03
  49. 00:15:06.071                             : :Chapter 04
  50. 00:18:46.917                             : :Chapter 05
  51. 00:20:43.283                             : :Chapter 06
  52. 00:27:33.485                             : :Chapter 07
  53. 00:31:41.608                             : :Chapter 08
  54. 00:36:16.591                             : :Chapter 09
  55. 00:38:02.488                             : :Chapter 10
  56. 00:42:56.282                             : :Chapter 11
  57. 00:47:50.701                             : :Chapter 12
  58. 00:51:23.872                             : :Chapter 13
  59. 00:56:37.185                             : :Chapter 14
  60. 01:02:41.966                             : :Chapter 15
  61. 01:07:33.799                             : :Chapter 16
  62. 01:14:09.862                             : :Chapter 17
  63. 01:17:21.136                             : :Chapter 18
  64. 01:23:02.602                             : :Chapter 19
  65. 01:27:26.616                             : :Chapter 20
  66. 01:29:55.181                             : :Chapter 21
  67. 01:33:11.544                             : :Chapter 22
  68. 01:37:19.375                             : :Chapter 23
  69. 01:41:12.357                             : :Chapter 24
复制代码









                                       
                                       

                                       
                                       
                                       




回复

使用道具 举报

懒得打字嘛,点击右侧快捷回复 【右侧内容,后台自定义】
您需要登录后才可以回帖 登录 | 立即加入

本版积分规则

Archiver|小黑屋| 蓝光电影网 |网站地图

Copyright © 2021 Comsenz Inc. Powered by 蓝光电影网

蓝光电影网

本站内容由用户自主分享和转载自互联网,转载目的在于传递更多信息,并不代表本网赞同其观点和对其真实性负责。

如有侵权、违反国家法律政策行为,请联系我们,我们会第一时间及时清除和处理!

举报反馈邮箱:[email protected]

快速回复 返回顶部 返回列表