找回密码

蓝光电影网

查看: 29|回复: 0

[剧情] 黑暗侵袭/暗袭 The.Descent.2005.ORIGINAL.UNRATED.CUT.1080p.BluRay.x264.DTS-FGT 9.42GB

[复制链接]
蓝光币
511
发表于 2020-11-8 08:41:14 | 显示全部楼层 |阅读模式


◎译  名 黑暗侵袭/暗袭/深入绝地(台)/魔洞/魔窟
◎片  名 The Descent
◎年  代 2005
◎产  地 英国
◎类  别 剧情 / 悬疑 / 可骇
◎语  言 英语
◎上映日期 2005-07-08(英国)
◎IMDb评分  7.2/10 from 199126 users
◎IMDb链接  https://www.imdb.com/title/tt0435625/
◎豆瓣评分 7.6/10 from 85102 users
◎豆瓣链接 https://movie.douban.com/subject/1437109/
◎片  长 99 分钟
◎导  演 尼尔·马歇尔 Neil Marshall
◎编  剧 尼尔·马歇尔 Neil Marshall
◎主  演 肖娜·麦克唐纳 Shauna Macdonald
       娜塔莉·杰克逊·门多萨 Natalie Jackson Mendoza
       阿里克斯·瑞德 Alex Reid
       萨斯基亚·马尔德 Saskia Mulder
       玛安娜·本灵 MyAnna Buring
       诺拉简·努恩 Nora-Jane Noone
       奥列佛·米尔本 Oliver Milburn
◎标  签 可骇 | 惊悚 | 英国 | 洞窟 | 探险 | 人性 | 可骇片 | 血腥
◎简  介


  莎拉(肖娜·麦克唐纳 饰)原本安静幸运的生活被一次车祸意外打破,丈夫和女儿在变乱中丧生,她虽然活了下来却今后萎靡不振,为了让莎拉重新抖擞起来,她的五个女性朋友为她放置了一次探险观光,地址是在一个森林中偏僻而陈腐洞窟,茹诺(娜塔丽·杰克逊·门多萨 饰)是其中最有田野探险经历也是她挑选来到这里。正当女孩们对岩穴中风景赞不绝口时,却在不知不觉中惊扰了洞中别的一种生物,他们没有视觉,依靠声音的来历残暴的捕杀她们,女孩们为了自救团结起来,却在逃生中朋友间互生思疑,为了保存下去,她们要若何在狭窄黑暗的洞窟中找到进来的路呢?
  1. Video
  2. ID                                       : 1
  3. Format                                   : AVC
  4. Format/Info                              : Advanced Video Codec
  5. Format profile                           : [email protected]
  6. Format settings                          : CABAC / 5 Ref Frames
  7. Format settings, CABAC                   : Yes
  8. Format settings, Reference frames        : 5 frames
  9. Codec ID                                 : V_MPEG4/ISO/AVC
  10. Duration                                 : 1 h 43 min
  11. Bit rate                                 : 11.3 Mb/s
  12. Nominal bit rate                         : 12.0 Mb/s
  13. Width                                    : 1 920 pixels
  14. Height                                   : 822 pixels
  15. Display aspect ratio                     : 2.35:1
  16. Frame rate mode                          : Constant
  17. Frame rate                               : 24.000 FPS
  18. Color space                              : YUV
  19. Chroma subsampling                       : 4:2:0
  20. Bit depth                                : 8 bits
  21. Scan type                                : Progressive
  22. Bits/(Pixel*Frame)                       : 0.298
  23. Stream size                              : 8.14 GiB (86%)
  24. Title                                    : x264
  25. Writing library                          : x264 core 115 r1995 c1e60b9
  26. Encoding settings                        : cabac=1 / ref=5 / deblock=1:-3:-3 / analyse=0x3:0x113 / me=esa / subme=10 / psy=1 / psy_rd=0.90:0.00 / mixed_ref=1 / me_range=64 / chroma_me=1 / trellis=2 / 8x8dct=1 / cqm=0 / deadzone=21,11 / fast_pskip=0 / chroma_qp_offset=-2 / threads=6 / sliced_threads=0 / nr=0 / decimate=0 / interlaced=0 / bluray_compat=0 / constrained_intra=0 / bframes=8 / b_pyramid=2 / b_adapt=2 / b_bias=0 / direct=3 / weightb=1 / open_gop=0 / weightp=2 / keyint=250 / keyint_min=24 / scenecut=40 / intra_refresh=0 / rc_lookahead=150 / rc=2pass / mbtree=1 / bitrate=12000 / ratetol=1.0 / qcomp=0.70 / qpmin=0 / qpmax=69 / qpstep=4 / cplxblur=20.0 / qblur=0.5 / vbv_maxrate=38000 / vbv_bufsize=30000 / nal_hrd=none / ip_ratio=1.40 / aq=1:0.80
  27. Language                                 : English
  28. Default                                  : Yes
  29. Forced                                   : No

  30. Audio
  31. ID                                       : 2
  32. Format                                   : DTS
  33. Format/Info                              : Digital Theater Systems
  34. Codec ID                                 : A_DTS
  35. Duration                                 : 1 h 43 min
  36. Bit rate mode                            : Constant
  37. Bit rate                                 : 1 509 kb/s
  38. Channel(s)                               : 6 channels
  39. Channel layout                           : C L R Ls Rs LFE
  40. Sampling rate                            : 48.0 kHz
  41. Frame rate                               : 93.750 FPS (512 SPF)
  42. Bit depth                                : 16 bits
  43. Compression mode                         : Lossy
  44. Stream size                              : 1.09 GiB (12%)
  45. Title                                    : DTS 5.1
  46. Language                                 : English
  47. Default                                  : Yes
  48. Forced                                   : No

  49. Text
  50. ID                                       : 3
  51. Format                                   : UTF-8
  52. Codec ID                                 : S_TEXT/UTF8
  53. Codec ID/Info                            : UTF-8 Plain Text
  54. Title                                    : English
  55. Language                                 : English
  56. Default                                  : No
  57. Forced                                   : No

  58. Menu
  59. 00:00:00.000                             : en:Sarah's Tragedy
  60. 00:06:01.833                             : en:Getting Away
  61. 00:13:59.750                             : en:Preparing For The Adventure
  62. 00:21:13.166                             : en:Entering The Cave
  63. 00:28:18.125                             : en:Stuck
  64. 00:34:45.250                             : en:No Way Out?
  65. 00:44:59.458                             : en:Not Alone
  66. 00:54:41.583                             : en:Is There Anybody There?
  67. 01:02:27.458                             : en:Creature In The Cave
  68. 01:13:24.791                             : en:Juno's Secret
  69. 01:18:38.250                             : en:Fighting Back
  70. 01:24:35.041                             : en:Confronting Juno
  71. 01:30:35.041                             : en:A Way Out
  72. 01:35:07.708                             : en:End Credits
复制代码









                                       
                                       

                                       
                                       
                                       




回复

使用道具 举报

懒得打字嘛,点击右侧快捷回复 【右侧内容,后台自定义】
您需要登录后才可以回帖 登录 | 立即加入

本版积分规则

Archiver|小黑屋| 蓝光电影网 |网站地图

Copyright © 2021 Comsenz Inc. Powered by 蓝光电影网

蓝光电影网

本站内容由用户自主分享和转载自互联网,转载目的在于传递更多信息,并不代表本网赞同其观点和对其真实性负责。

如有侵权、违反国家法律政策行为,请联系我们,我们会第一时间及时清除和处理!

举报反馈邮箱:[email protected]

快速回复 返回顶部 返回列表