找回密码

蓝光电影网

查看: 14|回复: 0

[剧情] 燃烧的平原/爱火燎原 The.Burning.Plain.2008.1080p.BluRay.x264.DTS-FGT 7.96GB

[复制链接]
蓝光币
519
发表于 2020-11-8 08:32:24 | 显示全部楼层 |阅读模式


◎译  名 熄灭的平原/爱火燎原(台)
◎片  名 The Burning Plain
◎年  代 2008
◎产  地 美国,阿根廷
◎类  别 剧情 / 恋爱 / 犯罪
◎语  言 英语,西班牙语
◎上映日期 2008-08-29
◎IMDb评分  6.8/10 from 18647 users
◎IMDb链接  https://www.imdb.com/title/tt1068641/
◎豆瓣评分 7.6/10 from 5554 users
◎豆瓣链接 https://movie.douban.com/subject/2147874/
◎片  长 107 分钟
◎导  演 吉列尔莫·阿里亚加 Guillermo Arriaga
◎编  剧 吉列尔莫·阿里亚加 Guillermo Arriaga
◎主  演 查理兹·塞隆 Charlize Theron
       金·贝辛格 Kim Basinger
       詹妮弗·劳伦斯 Jennifer Lawrence
       乔昆姆·德·阿尔梅达 Joaquim de Almeida
       何塞·马利亚·亚兹皮克 José María Yazpik
       马蒂·帕帕奇安 Marty Papazian
       罗宾·汤尼 Robin Tunney
       肖恩·麦克格拉斯 Sean McGrath
       迭戈·J·托雷斯 Diego J. Torres
       TJ·普伦基特 TJ Plunkett
       泰莎·依亚 Tessa Ia
       费尔南达·罗梅罗 Fernanda Romero
       雷切尔·蒂科汀 Rachel Ticotin
       约翰·考伯特 John Corbett
       Joe Dustin
       布莱特·卡伦 Brett Cullen
       J.D.普拉多 J.D. Pardo
       丹尼·皮诺 Danny Pino
◎标  签 美国 | 剧情 | CharlizeTheron | 人性 | 美国电影 | 恋爱 | 熄灭的平原 | 2008
◎简  介


  影片沿袭了吉勒莫·阿里加独步全国的多线叙事手法,经过纵横交织的情节展现了五位配角分歧的生活遭受。波特兰一个名叫西尔维亚(查理兹·塞隆饰)的女人,一向在童年时失慎犯下的罪孽阴影中不能自拔,期待与家人息争的她试图寻觅新的前途;生活在墨西哥边境小镇的16岁女孩玛利亚娜,想尽法子让豪情破裂的怙恃重归于好;一对情人吉娜和尼克不幸陷于难以自拔的地下情当中;小女孩玛丽亚则帮助自己的怙恃相互饶恕,找到真爱……这五人都在自己的疾苦中实现着自我拯救,终极找到了生活的真理。
◎获奖情况
  第65届威尼斯电影节 ?(2008)
  金狮奖(提名) 吉列尔莫·阿里亚加
  马塞洛·马斯托依安尼奖(新锐演员奖) 詹妮弗·劳伦斯
  1. Video
  2. ID                                       : 1
  3. Format                                   : AVC
  4. Format/Info                              : Advanced Video Codec
  5. Format profile                           : [email protected]
  6. Format settings                          : CABAC / 5 Ref Frames
  7. Format settings, CABAC                   : Yes
  8. Format settings, Reference frames        : 5 frames
  9. Codec ID                                 : V_MPEG4/ISO/AVC
  10. Duration                                 : 1 h 47 min
  11. Bit rate                                 : 9 100 kb/s
  12. Width                                    : 1 920 pixels
  13. Height                                   : 800 pixels
  14. Display aspect ratio                     : 2.40:1
  15. Frame rate mode                          : Constant
  16. Frame rate                               : 23.976 FPS
  17. Color space                              : YUV
  18. Chroma subsampling                       : 4:2:0
  19. Bit depth                                : 8 bits
  20. Scan type                                : Progressive
  21. Bits/(Pixel*Frame)                       : 0.247
  22. Stream size                              : 6.67 GiB (84%)
  23. Writing library                          : x264 core 67 r1145M d2e1e1c
  24. Encoding settings                        : cabac=1 / ref=5 / deblock=1:0:0 / analyse=0x3:0x133 / me=umh / subme=7 / psy_rd=1.0:0.0 / mixed_ref=1 / me_range=16 / chroma_me=1 / trellis=1 / 8x8dct=1 / cqm=0 / deadzone=21,11 / chroma_qp_offset=-2 / threads=6 / nr=0 / decimate=1 / mbaff=0 / bframes=3 / b_pyramid=1 / b_adapt=1 / b_bias=0 / direct=1 / wpredb=1 / keyint=250 / keyint_min=25 / scenecut=40 / rc=2pass / bitrate=9100 / ratetol=1.0 / qcomp=0.60 / qpmin=10 / qpmax=51 / qpstep=4 / cplxblur=20.0 / qblur=0.5 / ip_ratio=1.40 / pb_ratio=1.30 / aq=1:1.00
  25. Language                                 : English
  26. Default                                  : Yes
  27. Forced                                   : No

  28. Audio
  29. ID                                       : 2
  30. Format                                   : DTS
  31. Format/Info                              : Digital Theater Systems
  32. Codec ID                                 : A_DTS
  33. Duration                                 : 1 h 47 min
  34. Bit rate mode                            : Constant
  35. Bit rate                                 : 1 509 kb/s
  36. Channel(s)                               : 6 channels
  37. Channel layout                           : C L R Ls Rs LFE
  38. Sampling rate                            : 48.0 kHz
  39. Frame rate                               : 93.750 FPS (512 SPF)
  40. Bit depth                                : 24 bits
  41. Compression mode                         : Lossy
  42. Stream size                              : 1.13 GiB (14%)
  43. Language                                 : English
  44. Default                                  : Yes
  45. Forced                                   : No
复制代码









                                       
                                       

                                       
                                       
                                       




回复

使用道具 举报

懒得打字嘛,点击右侧快捷回复 【右侧内容,后台自定义】
您需要登录后才可以回帖 登录 | 立即加入

本版积分规则

Archiver|小黑屋| 蓝光电影网 |网站地图

Copyright © 2021 Comsenz Inc. Powered by 蓝光电影网

蓝光电影网

本站内容由用户自主分享和转载自互联网,转载目的在于传递更多信息,并不代表本网赞同其观点和对其真实性负责。

如有侵权、违反国家法律政策行为,请联系我们,我们会第一时间及时清除和处理!

举报反馈邮箱:[email protected]

快速回复 返回顶部 返回列表