找回密码

蓝光电影网

查看: 10|回复: 0

[剧情] 秘密花园 The.Secret.Garden.2020.1080p.BluRay.x264-PiGNUS 14.58GB

[复制链接]
蓝光币
519
发表于 2020-11-7 12:57:15 | 显示全部楼层 |阅读模式


◎译  名 奥秘花园
◎片  名 The Secret Garden
◎年  代 2020
◎产  地 英国,法国,美国,中国大陆
◎类  别 剧情 / 奇异
◎语  言 英语
◎上映日期 2020-07-08(中国台湾) / 2020-08-07(美国收集)
◎IMDb评分  5.5/10 from 3849 users
◎IMDb链接  https://www.imdb.com/title/tt2702920/
◎豆瓣评分 5.5/10 from 1063 users
◎豆瓣链接 https://movie.douban.com/subject/30206883/
◎片  长 99分钟
◎导  演 马克·穆登 Marc Munden
◎编  剧 杰克·索恩 Jack Thorne / 弗朗西丝·霍奇森·伯内特 Frances Hodgson Burnett
◎主  演 迪克西·艾格瑞克斯 Dixie Egerickx
       理查德·韩塞尔 Richard Hansell
       大卫·韦雷 David Verrey
       汤米·吉恩·苏里奇 Tommy Gene Surridge
       朱丽·沃特斯 Julie Walters
       梅芙·德莫迪 Maeve Dermody
       科林·费尔斯 Colin Firth
       伊希斯·戴维斯 Isis Davis
       阿米尔·威尔森 Amir Wilson
       伊登·黑赫斯特 Edan Hayhurst
       鲁伯特·杨 rupert young
       杰玛·鲍威尔 Jemma Powell
       保罗·G·雷蒙德 Paul G. Raymond
◎标  签 奇异 | 英国 | 儿童 | 小说改编 | 2020 | 童话 | 剧情 | 改编
◎简  介


  原小说报告玛丽怙恃双亡后,生活在姨夫阴晦奥秘的大屋子里,闯进了禁闭已久的花园,与迪肯、柯林等人找到了欢畅的源泉。
  1. Video
  2. ID                                       : 1
  3. Format                                   : AVC
  4. Format/Info                              : Advanced Video Codec
  5. Format profile                           : [email protected]
  6. Format settings                          : CABAC / 4 Ref Frames
  7. Format settings, CABAC                   : Yes
  8. Format settings, Reference frames        : 4 frames
  9. Codec ID                                 : V_MPEG4/ISO/AVC
  10. Duration                                 : 1 h 40 min
  11. Bit rate                                 : 17.5 Mb/s
  12. Width                                    : 1 920 pixels
  13. Height                                   : 1 036 pixels
  14. Display aspect ratio                     : 1.85:1
  15. Frame rate mode                          : Constant
  16. Frame rate                               : 23.976 (24000/1001/189150) FPS
  17. Color space                              : YUV
  18. Chroma subsampling                       : 4:2:0
  19. Bit depth                                : 8 bits
  20. Scan type                                : Progressive
  21. Bits/(Pixel*Frame)                       : 0.368
  22. Stream size                              : 12.3 GiB (84%)
  23. Writing library                          : x264 core 161 r3027 4121277
  24. Encoding settings                        : cabac=1 / ref=4 / deblock=1:-3:-3 / analyse=0x3:0x133 / me=umh / subme=9 / psy=1 / psy_rd=1.00:0.00 / mixed_ref=1 / me_range=16 / chroma_me=1 / trellis=2 / 8x8dct=1 / cqm=0 / deadzone=21,11 / fast_pskip=1 / chroma_qp_offset=-2 / threads=32 / lookahead_threads=2 / sliced_threads=0 / nr=0 / decimate=1 / interlaced=0 / bluray_compat=0 / constrained_intra=0 / bframes=3 / b_pyramid=2 / b_adapt=2 / b_bias=0 / direct=3 / weightb=1 / open_gop=0 / weightp=2 / keyint=250 / keyint_min=23 / scenecut=40 / intra_refresh=0 / rc_lookahead=60 / rc=crf / mbtree=1 / crf=15.5 / qcomp=0.60 / qpmin=0 / qpmax=69 / qpstep=4 / ip_ratio=1.40 / aq=1:1.00
  25. Language                                 : English
  26. Default                                  : Yes
  27. Forced                                   : No

  28. Audio
  29. ID                                       : 2
  30. Format                                   : DTS XLL
  31. Format/Info                              : Digital Theater Systems
  32. Commercial name                          : DTS-HD Master Audio
  33. Codec ID                                 : A_DTS
  34. Duration                                 : 1 h 40 min
  35. Bit rate mode                            : Variable
  36. Bit rate                                 : 3 289 kb/s
  37. Channel(s)                               : 6 channels
  38. Channel layout                           : C L R Ls Rs LFE
  39. Sampling rate                            : 48.0 kHz
  40. Frame rate                               : 93.750 FPS (512 SPF)
  41. Bit depth                                : 24 bits
  42. Compression mode                         : Lossless
  43. Stream size                              : 2.30 GiB (16%)
  44. Language                                 : English
  45. Default                                  : Yes
  46. Forced                                   : No

  47. Text #1
  48. ID                                       : 3
  49. Format                                   : PGS
  50. Muxing mode                              : zlib
  51. Codec ID                                 : S_HDMV/PGS
  52. Codec ID/Info                            : Picture based subtitle format used on BDs/HD-DVDs
  53. Duration                                 : 1 h 34 min
  54. Bit rate                                 : 29.9 kb/s
  55. Count of elements                        : 2016
  56. Stream size                              : 20.1 MiB (0%)
  57. Title                                    : English SDH
  58. Language                                 : English
  59. Default                                  : No
  60. Forced                                   : No

  61. Text #2
  62. ID                                       : 4
  63. Format                                   : PGS
  64. Muxing mode                              : zlib
  65. Codec ID                                 : S_HDMV/PGS
  66. Codec ID/Info                            : Picture based subtitle format used on BDs/HD-DVDs
  67. Duration                                 : 1 h 38 min
  68. Bit rate                                 : 21.3 kb/s
  69. Count of elements                        : 1588
  70. Stream size                              : 15.0 MiB (0%)
  71. Title                                    : Spanish
  72. Language                                 : Spanish
  73. Default                                  : No
  74. Forced                                   : No

  75. Menu
  76. 00:00:00.000                             : en:Chapter 01
  77. 00:05:07.140                             : en:Chapter 02
  78. 00:10:05.480                             : en:Chapter 03
  79. 00:15:28.803                             : en:Chapter 04
  80. 00:20:27.810                             : en:Chapter 05
  81. 00:24:08.864                             : en:Chapter 06
  82. 00:27:39.032                             : en:Chapter 07
  83. 00:32:40.458                             : en:Chapter 08
  84. 00:37:58.568                             : en:Chapter 09
  85. 00:44:15.903                             : en:Chapter 10
  86. 00:48:41.961                             : en:Chapter 11
  87. 00:53:54.231                             : en:Chapter 12
  88. 00:59:09.296                             : en:Chapter 13
  89. 01:04:29.324                             : en:Chapter 14
  90. 01:08:25.601                             : en:Chapter 15
  91. 01:13:15.266                             : en:Chapter 16
  92. 01:18:22.907                             : en:Chapter 17
  93. 01:23:59.451                             : en:Chapter 18
  94. 01:30:11.072                             : en:Chapter 19
  95. 01:34:57.525                             : en:Chapter 20
复制代码




                                       
                                       

                                       
                                       
                                       




回复

使用道具 举报

懒得打字嘛,点击右侧快捷回复 【右侧内容,后台自定义】
您需要登录后才可以回帖 登录 | 立即加入

本版积分规则

Archiver|小黑屋| 蓝光电影网 |网站地图

Copyright © 2021 Comsenz Inc. Powered by 蓝光电影网

蓝光电影网

本站内容由用户自主分享和转载自互联网,转载目的在于传递更多信息,并不代表本网赞同其观点和对其真实性负责。

如有侵权、违反国家法律政策行为,请联系我们,我们会第一时间及时清除和处理!

举报反馈邮箱:[email protected]

快速回复 返回顶部 返回列表