找回密码

蓝光电影网

查看: 23|回复: 0

[剧情] 天道 The.Divine.Order.2017.LIMITED.1080p.BluRay.x264-USURY 7.65GB

[复制链接]
蓝光币
515
发表于 2020-11-7 10:46:34 | 显示全部楼层 |阅读模式


◎译  名 天道/The Divine Order/老娘要反动(台)
◎片  名 Die g?ttliche Ordnung
◎年  代 2017
◎产  地 瑞士
◎类  别 剧情
◎语  言 德语,英语,意大利语,瑞士德语
◎上映日期 2017-04-21(翠贝卡电影节)
◎IMDb评分  7/10 from 2323 users
◎IMDb链接  https://www.imdb.com/title/tt5818818/
◎豆瓣评分 6.9/10 from 267 users
◎豆瓣链接 https://movie.douban.com/subject/26964217/
◎片  长 96分钟
◎导  演 佩特拉·比翁迪娜·沃尔普 Petra Biondina Volpe
◎编  剧 佩特拉·比翁迪娜·沃尔普 Petra Biondina Volpe
◎主  演 玛丽·洛伊恩贝格尔 Marie Leuenberger
       泰蕾兹·阿福尔特 Therese Affolter
       艾拉·朗夫 Ella Rumpf
       索菲亚·海林 Sofia Helin
       马克西米利安·西蒙斯切克 Maximilian Simonischek
       西比勒·布露娜 Sibylle Brunner
       尼古拉斯·奥夫恰雷克 Nicholas Ofczarek
◎标  签 瑞士 | 女性 | 女权主义 | 2017 | 瑞士电影 | 剧情 | 社会 | 女权
◎简  介


  一向到上世纪70年月之前,瑞士的政治家和宗教魁首们都以为,出于“天道”,妇女没有投票等各种权利。 诺拉是一位年轻的家庭妇女,与她的丈夫和两个儿子生活在一个安好的小村落里,过着与世无争的生活。在这样的瑞士村落里,即即是1968年5月那一场浩荡的政治活动也没能在当地居民中掀起什么风浪来。诺拉的生活本该不会遭到任何影响——直到某一天,她忽然决议要公然加入竞选,为妇女的权利奋斗。虽然遭到各种挫折,也不被家人支持和了解,她仍对峙鼓舞村子里的妇女们一同为自己应有的权利发声……
◎获奖情况
  第22届金卫星奖 ?(2018)
  电影部分最好外语片(提名)
  1. Video
  2. ID                                       : 1
  3. Format                                   : AVC
  4. Format/Info                              : Advanced Video Codec
  5. Format profile                           : [email protected]
  6. Format settings                          : CABAC / 5 Ref Frames
  7. Format settings, CABAC                   : Yes
  8. Format settings, Reference frames        : 5 frames
  9. Codec ID                                 : V_MPEG4/ISO/AVC
  10. Duration                                 : 1 h 36 min
  11. Bit rate                                 : 9 807 kb/s
  12. Width                                    : 1 920 pixels
  13. Height                                   : 808 pixels
  14. Display aspect ratio                     : 2.40:1
  15. Frame rate mode                          : Constant
  16. Frame rate                               : 23.976 (24000/1001/189150) FPS
  17. Color space                              : YUV
  18. Chroma subsampling                       : 4:2:0
  19. Bit depth                                : 8 bits
  20. Scan type                                : Progressive
  21. Bits/(Pixel*Frame)                       : 0.264
  22. Stream size                              : 6.63 GiB (87%)
  23. Writing library                          : x264 core 157 r2935 545de2f
  24. Encoding settings                        : cabac=1 / ref=5 / deblock=1:-3:-3 / analyse=0x3:0x133 / me=umh / subme=9 / psy=1 / psy_rd=1.00:0.00 / mixed_ref=1 / me_range=16 / chroma_me=1 / trellis=2 / 8x8dct=1 / cqm=0 / deadzone=21,11 / fast_pskip=0 / chroma_qp_offset=-2 / threads=24 / lookahead_threads=2 / sliced_threads=0 / nr=0 / decimate=1 / interlaced=0 / bluray_compat=0 / constrained_intra=0 / bframes=3 / b_pyramid=2 / b_adapt=1 / b_bias=0 / direct=3 / weightb=1 / open_gop=0 / weightp=2 / keyint=240 / keyint_min=24 / scenecut=40 / intra_refresh=0 / rc_lookahead=50 / rc=2pass / mbtree=1 / bitrate=9807 / ratetol=1.0 / qcomp=0.60 / qpmin=0 / qpmax=69 / qpstep=4 / cplxblur=20.0 / qblur=0.5 / ip_ratio=1.40 / aq=1:1.00
  25. Language                                 : English
  26. Default                                  : Yes
  27. Forced                                   : No

  28. Audio
  29. ID                                       : 2
  30. Format                                   : DTS
  31. Format/Info                              : Digital Theater Systems
  32. Codec ID                                 : A_DTS
  33. Duration                                 : 1 h 36 min
  34. Bit rate mode                            : Constant
  35. Bit rate                                 : 1 509 kb/s
  36. Channel(s)                               : 6 channels
  37. Channel layout                           : C L R Ls Rs LFE
  38. Sampling rate                            : 48.0 kHz
  39. Frame rate                               : 93.750 FPS (512 SPF)
  40. Bit depth                                : 24 bits
  41. Compression mode                         : Lossy
  42. Stream size                              : 1.02 GiB (13%)
  43. Language                                 : German
  44. Default                                  : Yes
  45. Forced                                   : No

  46. Text
  47. ID                                       : 3
  48. Format                                   : UTF-8
  49. Codec ID                                 : S_TEXT/UTF8
  50. Codec ID/Info                            : UTF-8 Plain Text
  51. Duration                                 : 1 h 31 min
  52. Bit rate                                 : 52 b/s
  53. Count of elements                        : 1042
  54. Stream size                              : 35.4 KiB (0%)
  55. Title                                    : English
  56. Language                                 : English
  57. Default                                  : Yes
  58. Forced                                   : Yes

  59. Menu
  60. 00:00:00.000                             : en:00:00:00.000
  61. 00:08:16.538                             : en:00:08:16.538
  62. 00:15:49.782                             : en:00:15:49.782
  63. 00:21:28.954                             : en:00:21:28.954
  64. 00:30:30.245                             : en:00:30:30.245
  65. 00:40:54.327                             : en:00:40:54.327
  66. 00:50:14.637                             : en:00:50:14.637
  67. 00:58:44.229                             : en:00:58:44.229
  68. 01:09:42.762                             : en:01:09:42.762
  69. 01:22:43.000                             : en:01:22:43.000
复制代码




                                       
                                       

                                       
                                       
                                       




回复

使用道具 举报

懒得打字嘛,点击右侧快捷回复 【右侧内容,后台自定义】
您需要登录后才可以回帖 登录 | 立即加入

本版积分规则

Archiver|小黑屋| 蓝光电影网 |网站地图

Copyright © 2021 Comsenz Inc. Powered by 蓝光电影网

蓝光电影网

本站内容由用户自主分享和转载自互联网,转载目的在于传递更多信息,并不代表本网赞同其观点和对其真实性负责。

如有侵权、违反国家法律政策行为,请联系我们,我们会第一时间及时清除和处理!

举报反馈邮箱:[email protected]

快速回复 返回顶部 返回列表