找回密码

蓝光电影网

查看: 16|回复: 0

[剧情] 极道黑社会 Rainy.Dog.1997.1080p.BluRay.x264-USURY 7.94GB

[复制链接]
蓝光币
519
发表于 2020-11-7 10:40:34 | 显示全部楼层 |阅读模式


◎译  名 极道黑社会/Rainy Dog/雨狗
◎片  名 極道黒社会 RAINY DOG
◎年  代 1997
◎产  地 日本
◎类  别 剧情 / 犯罪
◎语  言 日语,汉语普通话
◎上映日期 1997-06-28(日本)
◎IMDb评分  7.1/10 from 2288 users
◎IMDb链接  https://www.imdb.com/title/tt0142316/
◎豆瓣评分 6.8/10 from 589 users
◎豆瓣链接 https://movie.douban.com/subject/1302936/
◎片  长 94分钟
◎导  演 三池崇史 Takashi Miike
◎主  演 哀川翔 Show Aikawa
       田口智朗 Tomorowo Taguchi
       陈仙梅 Mayko Chen
       何建贤
       李立群 Lichun Lee
       程守一 Billy Sau Yat Ching
       张世 Shih Chang
       钮承泽 Doze Niu Chen-Zer
       魏筱惠 Vicky Wei
       柯受良 Sau Leung 'Blacky' Ko
       张立威 Laap Wai Cheung
       高明骏 Ming-chun Kao
       段钧豪 Chun-hao Tuan
◎标  签 三池崇史 | 日本 | 黑帮 | 日本电影 | 暴力 | 1997 | 李立群 | 台湾
◎简  介


  岸田优儿(哀川翔 饰),一个被逐出日本的失格黑帮份子,沉默寡言,整天游荡在台湾湿润的陌头。落魄之际他获得当地黑帮头子何叔(李立群 饰)的欣赏,成为一位杀人不见血的赏金杀手。对于冷血独行客来说,恋爱奢侈而悠远,毕竟只要恋爱的结晶陪伴他的左右。
  
  优儿获得新的使命,受命前往刺杀敌对帮气派目顾奇平(程守一 饰),却因一场大雨中断行动。避雨时代结识妓女丽丽(陈仙梅 饰),一段畸零恋爱悄悄滋生。优儿终极射杀方针,随后与女友、儿子死路流亡。顾的弟弟顾枫(高明骏 饰)立誓为兄长报仇,而何叔为求自保,更与顾枫息争。优儿真正成了命悬一线的丧家之犬……
◎获奖情况
  第34届台北金马影展 ?(1997)
  金马奖最好音效(提名) 柴崎宪治
  1. Video
  2. ID                                       : 1
  3. Format                                   : AVC
  4. Format/Info                              : Advanced Video Codec
  5. Format profile                           : [email protected]
  6. Format settings                          : CABAC / 4 Ref Frames
  7. Format settings, CABAC                   : Yes
  8. Format settings, Reference frames        : 4 frames
  9. Codec ID                                 : V_MPEG4/ISO/AVC
  10. Duration                                 : 1 h 34 min
  11. Bit rate                                 : 10.6 Mb/s
  12. Width                                    : 1 920 pixels
  13. Height                                   : 1 040 pixels
  14. Display aspect ratio                     : 1.85:1
  15. Frame rate mode                          : Constant
  16. Frame rate                               : 23.976 (24000/1001/189150) FPS
  17. Color space                              : YUV
  18. Chroma subsampling                       : 4:2:0
  19. Bit depth                                : 8 bits
  20. Scan type                                : Progressive
  21. Bits/(Pixel*Frame)                       : 0.222
  22. Stream size                              : 7.00 GiB (88%)
  23. Writing library                          : x264 core 148 r2705 3f5ed56
  24. Encoding settings                        : cabac=1 / ref=4 / deblock=1:0:0 / analyse=0x3:0x133 / me=umh / subme=9 / psy=1 / psy_rd=1.00:0.00 / mixed_ref=1 / me_range=16 / chroma_me=1 / trellis=2 / 8x8dct=1 / cqm=0 / deadzone=21,11 / fast_pskip=0 / chroma_qp_offset=-2 / threads=18 / lookahead_threads=1 / sliced_threads=0 / nr=0 / decimate=1 / interlaced=0 / bluray_compat=0 / constrained_intra=0 / bframes=3 / b_pyramid=2 / b_adapt=2 / b_bias=0 / direct=3 / weightb=1 / open_gop=0 / weightp=2 / keyint=250 / keyint_min=23 / scenecut=40 / intra_refresh=0 / rc_lookahead=50 / rc=2pass / mbtree=1 / bitrate=10626 / ratetol=1.0 / qcomp=0.60 / qpmin=0 / qpmax=69 / qpstep=4 / cplxblur=20.0 / qblur=0.5 / ip_ratio=1.40 / aq=1:1.00
  25. Language                                 : English
  26. Default                                  : Yes
  27. Forced                                   : No

  28. Audio
  29. ID                                       : 2
  30. Format                                   : FLAC
  31. Format/Info                              : Free Lossless Audio Codec
  32. Codec ID                                 : A_FLAC
  33. Duration                                 : 1 h 34 min
  34. Bit rate mode                            : Variable
  35. Bit rate                                 : 1 422 kb/s
  36. Channel(s)                               : 2 channels
  37. Channel layout                           : L R
  38. Sampling rate                            : 48.0 kHz
  39. Frame rate                               : 11.719 FPS (4096 SPF)
  40. Bit depth                                : 24 bits
  41. Compression mode                         : Lossless
  42. Stream size                              : 961 MiB (12%)
  43. Writing library                          : libFLAC 1.2.1 (UTC 2007-09-17)
  44. Language                                 : Japanese
  45. Default                                  : Yes
  46. Forced                                   : No

  47. Text
  48. ID                                       : 3
  49. Format                                   : UTF-8
  50. Codec ID                                 : S_TEXT/UTF8
  51. Codec ID/Info                            : UTF-8 Plain Text
  52. Duration                                 : 1 h 34 min
  53. Bit rate                                 : 16 b/s
  54. Count of elements                        : 458
  55. Stream size                              : 11.5 KiB (0%)
  56. Title                                    : forced
  57. Language                                 : English
  58. Default                                  : Yes
  59. Forced                                   : Yes
复制代码




                                       
                                       

                                       
                                       
                                       




回复

使用道具 举报

懒得打字嘛,点击右侧快捷回复 【右侧内容,后台自定义】
您需要登录后才可以回帖 登录 | 立即加入

本版积分规则

Archiver|小黑屋| 蓝光电影网 |网站地图

Copyright © 2021 Comsenz Inc. Powered by 蓝光电影网

蓝光电影网

本站内容由用户自主分享和转载自互联网,转载目的在于传递更多信息,并不代表本网赞同其观点和对其真实性负责。

如有侵权、违反国家法律政策行为,请联系我们,我们会第一时间及时清除和处理!

举报反馈邮箱:[email protected]

快速回复 返回顶部 返回列表