找回密码

蓝光电影网

查看: 8|回复: 0

[剧情] 食人族时代 Age.of.Cannibals.2014.1080p.BluRay.x264-USURY 6.57GB

[复制链接]
蓝光币
515
发表于 2020-11-7 10:37:35 | 显示全部楼层 |阅读模式


◎译  名 食人族时代/Age of Cannibals
◎片  名 Zeit der Kannibalen
◎年  代 2014
◎产  地 德国
◎类  别 剧情
◎语  言 德语
◎上映日期 2014-02-10(柏林电影节)
◎IMDb评分  7.1/10 from 1860 users
◎IMDb链接  https://www.imdb.com/title/tt2723240/
◎豆瓣评分 /10 from 0 users
◎豆瓣链接 https://movie.douban.com/subject/24522982/
◎片  长 93分钟
◎导  演 约翰内斯·奈博 Johannes Naber
◎主  演 杰米斯·巴特勒 Jaymes Butler
       卡塔琳娜·舒特勒 Katharina Schüttler
       大卫·史崔梭德 Devid Striesow
       弗洛伦丝·卡松巴 Florence Kasumba
◎标  签 德国 | 剧情 | 2014 | 德国|德语电影 | 人性 | 悬疑 | 德国电影节 | 德国电影
◎简  介


  欧乐斯和尼德兰德是两位支出颇丰的企业征询师。多年以来,他们走遍了全球最为龌龊的角落,为客户排忧解难。在他们看来,现实就是奢华酒店空调房窗外一面挤满灰尘的围墙。他们的方针是进入公司的最高层,成为合股人。现在,方针似乎已经近在眼前。
  
  约翰内斯· 纳博成功地将《食人族时代》打形成了一部使人爱恨交集的影片。他以第三天下国家的奢华酒店为场景,以奢华而又写实的方式加上嘲讽和黑色诙谐,在为观众描画全球经济气象的同时,将人性的冷酷和贪心表露无遗。
  1. Video
  2. ID                                       : 1
  3. Format                                   : AVC
  4. Format/Info                              : Advanced Video Codec
  5. Format profile                           : [email protected]
  6. Format settings                          : CABAC / 5 Ref Frames
  7. Format settings, CABAC                   : Yes
  8. Format settings, Reference frames        : 5 frames
  9. Codec ID                                 : V_MPEG4/ISO/AVC
  10. Duration                                 : 1 h 28 min
  11. Bit rate                                 : 9 040 kb/s
  12. Width                                    : 1 920 pixels
  13. Height                                   : 800 pixels
  14. Display aspect ratio                     : 2.40:1
  15. Frame rate mode                          : Constant
  16. Frame rate                               : 25.000 FPS
  17. Color space                              : YUV
  18. Chroma subsampling                       : 4:2:0
  19. Bit depth                                : 8 bits
  20. Scan type                                : Progressive
  21. Bits/(Pixel*Frame)                       : 0.235
  22. Stream size                              : 5.62 GiB (86%)
  23. Writing library                          : x264 core 148 r2705 3f5ed56
  24. Encoding settings                        : cabac=1 / ref=5 / deblock=1:0:0 / analyse=0x3:0x133 / me=umh / subme=9 / psy=1 / psy_rd=1.00:0.00 / mixed_ref=1 / me_range=16 / chroma_me=1 / trellis=1 / 8x8dct=1 / cqm=0 / deadzone=21,11 / fast_pskip=0 / chroma_qp_offset=-2 / threads=18 / lookahead_threads=1 / sliced_threads=0 / nr=0 / decimate=1 / interlaced=0 / bluray_compat=0 / constrained_intra=0 / bframes=3 / b_pyramid=2 / b_adapt=2 / b_bias=0 / direct=3 / weightb=1 / open_gop=0 / weightp=2 / keyint=250 / keyint_min=25 / scenecut=40 / intra_refresh=0 / rc_lookahead=50 / rc=2pass / mbtree=1 / bitrate=9040 / ratetol=1.0 / qcomp=0.60 / qpmin=0 / qpmax=69 / qpstep=4 / cplxblur=20.0 / qblur=0.5 / ip_ratio=1.40 / aq=1:1.00
  25. Language                                 : English
  26. Default                                  : Yes
  27. Forced                                   : No

  28. Audio
  29. ID                                       : 2
  30. Format                                   : DTS
  31. Format/Info                              : Digital Theater Systems
  32. Codec ID                                 : A_DTS
  33. Duration                                 : 1 h 29 min
  34. Bit rate mode                            : Constant
  35. Bit rate                                 : 1 509 kb/s
  36. Channel(s)                               : 6 channels
  37. Channel layout                           : C L R Ls Rs LFE
  38. Sampling rate                            : 48.0 kHz
  39. Frame rate                               : 93.750 FPS (512 SPF)
  40. Bit depth                                : 24 bits
  41. Compression mode                         : Lossy
  42. Stream size                              : 961 MiB (14%)
  43. Language                                 : German
  44. Default                                  : Yes
  45. Forced                                   : No

  46. Text
  47. ID                                       : 3
  48. Format                                   : UTF-8
  49. Codec ID                                 : S_TEXT/UTF8
  50. Codec ID/Info                            : UTF-8 Plain Text
  51. Duration                                 : 1 h 22 min
  52. Bit rate                                 : 44 b/s
  53. Count of elements                        : 905
  54. Stream size                              : 26.7 KiB (0%)
  55. Title                                    : forced
  56. Language                                 : English
  57. Default                                  : Yes
  58. Forced                                   : Yes

  59. Menu
  60. 00:00:00.000                             : en:00:00:00.000
  61. 00:12:16.000                             : en:00:12:16.000
  62. 00:25:08.000                             : en:00:25:08.000
  63. 00:40:29.000                             : en:00:40:29.000
  64. 01:00:15.000                             : en:01:00:15.000
  65. 01:15:15.000                             : en:01:15:15.000
  66. 01:25:28.000                             : en:01:25:28.000
复制代码




                                       
                                       

                                       
                                       
                                       




回复

使用道具 举报

懒得打字嘛,点击右侧快捷回复 【右侧内容,后台自定义】
您需要登录后才可以回帖 登录 | 立即加入

本版积分规则

Archiver|小黑屋| 蓝光电影网 |网站地图

Copyright © 2021 Comsenz Inc. Powered by 蓝光电影网

蓝光电影网

本站内容由用户自主分享和转载自互联网,转载目的在于传递更多信息,并不代表本网赞同其观点和对其真实性负责。

如有侵权、违反国家法律政策行为,请联系我们,我们会第一时间及时清除和处理!

举报反馈邮箱:[email protected]

快速回复 返回顶部 返回列表