找回密码

蓝光电影网

查看: 22|回复: 0

[剧情] 一千零一夜第1部:不安之人 Arabian.Nights.Volume.I.The.Restless.One.2015.1080p.BluRay.x264-USURY 9.83GB

[复制链接]
蓝光币
515
发表于 2020-11-7 10:19:35 | 显示全部楼层 |阅读模式


◎译  名 一千零一夜第1部:不安之人/Arabian Nights – Volume 1: The Restless One/Les Mille et Une Nuits/一千零一夜I:不安之人(台)
◎片  名 As Mil e Uma Noites: Volume 1, O Inquieto
◎年  代 2015
◎产  地 葡萄牙,法国,德国,瑞士
◎类  别 剧情
◎语  言 英语,德语,葡萄牙语,法语,汉语普通话
◎上映日期 2015-05-16(戛纳电影节) / 2015-06-24(法国)
◎IMDb评分  7/10 from 2058 users
◎IMDb链接  https://www.imdb.com/title/tt3284178/
◎豆瓣评分 7.0/10 from 1294 users
◎豆瓣链接 https://movie.douban.com/subject/24754783/
◎片  长 125分钟
◎导  演 米格尔·戈麦斯 Miguel Gomes
◎编  剧 提尔莫·舍罗 Telmo Churro / 米格尔·戈麦斯 Miguel Gomes / 马里亚娜·里卡多 Mariana Ricardo
◎主  演 克里斯塔·法亚特 Crista Alfaiate
       米格尔·戈麦斯 Miguel Gomes
       罗基里奥·萨莫拉 Rogério Samora
       卡里托·科塔 Carloto Cotta
       路易莎·克鲁兹 Luísa Cruz
       奇科查帕斯 Chico Chapas
       玛丽亚·吕埃夫 Maria Rueff
       布鲁诺·布拉沃 Bruno Bravo
       迪纳特·布兰科 Dinarte Branco
       阿梅瑞科·席尔娃 Américo Silva
       阿德里亚诺·拉兹 Adriano Luz
       贡萨洛·沃丁顿 Gon?alo Waddington
       Joana de Verona
       Cristina Carvalhal
       Jo?o Pedro Bénard
       特丽莎·马德鲁加 Teresa Madruga
       Diogo Dória
       玛格丽特·卡彭特 Margarida Carpinteiro
◎标  签 葡萄牙 | 2015 | 米古尔·戈麦斯 | 剧情 | 奇异 | 戛纳 | 天方夜谭 | 社会
◎简  介


  深受国际影坛注视标葡萄牙导演米格尔戈麦斯,继享誉国际的《金色八月天》、《禁恋》后,以长达383分钟的新作《一千零一夜》三部曲,显现今世葡萄牙的众生相。首部曲《一千零一夜I:不安之人》以天方夜谭中诉说故事的皇后雪哈拉莎德展开,藉由三段故事描画富人、贫民、强者、鲁蛇、小偷和老实的人,若何在金融风暴下存活下来。米格尔戈麦斯连系现实主义色彩与冷调诙谐的嘲讽笔触,锋利批评政府的财政计画,使人大呼出色。
◎获奖情况
  第68届戛纳电影节 ?(2015)
  导演双周单元(提名) 米格尔·戈麦斯
  1. Video
  2. ID                                       : 1
  3. Format                                   : AVC
  4. Format/Info                              : Advanced Video Codec
  5. Format profile                           : [email protected]
  6. Format settings                          : CABAC / 5 Ref Frames
  7. Format settings, CABAC                   : Yes
  8. Format settings, Reference frames        : 5 frames
  9. Codec ID                                 : V_MPEG4/ISO/AVC
  10. Duration                                 : 2 h 5 min
  11. Bit rate                                 : 9 721 kb/s
  12. Width                                    : 1 920 pixels
  13. Height                                   : 808 pixels
  14. Display aspect ratio                     : 2.40:1
  15. Frame rate mode                          : Constant
  16. Frame rate                               : 23.976 FPS
  17. Color space                              : YUV
  18. Chroma subsampling                       : 4:2:0
  19. Bit depth                                : 8 bits
  20. Scan type                                : Progressive
  21. Bits/(Pixel*Frame)                       : 0.261
  22. Stream size                              : 8.51 GiB (87%)
  23. Writing library                          : x264 core 148 r2692 64f4e24
  24. Encoding settings                        : cabac=1 / ref=5 / deblock=1:0:0 / analyse=0x3:0x133 / me=umh / subme=7 / psy=1 / psy_rd=1.00:0.00 / mixed_ref=1 / me_range=16 / chroma_me=1 / trellis=1 / 8x8dct=1 / cqm=0 / deadzone=21,11 / fast_pskip=0 / chroma_qp_offset=-2 / threads=12 / lookahead_threads=2 / sliced_threads=0 / nr=0 / decimate=1 / interlaced=0 / bluray_compat=0 / constrained_intra=0 / bframes=3 / b_pyramid=2 / b_adapt=2 / b_bias=0 / direct=3 / weightb=1 / open_gop=0 / weightp=2 / keyint=250 / keyint_min=23 / scenecut=40 / intra_refresh=0 / rc_lookahead=50 / rc=2pass / mbtree=1 / bitrate=9721 / ratetol=1.0 / qcomp=0.60 / qpmin=0 / qpmax=69 / qpstep=4 / cplxblur=20.0 / qblur=0.5 / ip_ratio=1.40 / aq=1:1.00
  25. Language                                 : English
  26. Default                                  : Yes
  27. Forced                                   : No

  28. Audio
  29. ID                                       : 2
  30. Format                                   : DTS
  31. Format/Info                              : Digital Theater Systems
  32. Codec ID                                 : A_DTS
  33. Duration                                 : 2 h 5 min
  34. Bit rate mode                            : Constant
  35. Bit rate                                 : 1 509 kb/s
  36. Channel(s)                               : 6 channels
  37. Channel layout                           : C L R Ls Rs LFE
  38. Sampling rate                            : 48.0 kHz
  39. Frame rate                               : 93.750 FPS (512 SPF)
  40. Bit depth                                : 24 bits
  41. Compression mode                         : Lossy
  42. Stream size                              : 1.32 GiB (13%)
  43. Language                                 : Portuguese
  44. Default                                  : Yes
  45. Forced                                   : No

  46. Text
  47. ID                                       : 3
  48. Format                                   : UTF-8
  49. Codec ID                                 : S_TEXT/UTF8
  50. Codec ID/Info                            : UTF-8 Plain Text
  51. Duration                                 : 1 h 58 min
  52. Bit rate                                 : 70 b/s
  53. Count of elements                        : 1452
  54. Stream size                              : 61.7 KiB (0%)
  55. Title                                    : forced
  56. Language                                 : English
  57. Default                                  : Yes
  58. Forced                                   : Yes

  59. Menu
  60. 00:00:00.000                             : en:00:00:00.000
  61. 00:12:09.270                             : en:00:12:09.270
  62. 00:28:22.576                             : en:00:28:22.576
  63. 00:50:49.338                             : en:00:50:49.338
  64. 01:10:02.031                             : en:01:10:02.031
  65. 01:22:15.806                             : en:01:22:15.806
  66. 01:28:47.614                             : en:01:28:47.614
  67. 01:42:15.338                             : en:01:42:15.338
  68. 01:49:31.857                             : en:01:49:31.857
  69. 01:55:13.240                             : en:01:55:13.240
复制代码




                                       
                                       

                                       
                                       
                                       




回复

使用道具 举报

懒得打字嘛,点击右侧快捷回复 【右侧内容,后台自定义】
您需要登录后才可以回帖 登录 | 立即加入

本版积分规则

Archiver|小黑屋| 蓝光电影网 |网站地图

Copyright © 2021 Comsenz Inc. Powered by 蓝光电影网

蓝光电影网

本站内容由用户自主分享和转载自互联网,转载目的在于传递更多信息,并不代表本网赞同其观点和对其真实性负责。

如有侵权、违反国家法律政策行为,请联系我们,我们会第一时间及时清除和处理!

举报反馈邮箱:[email protected]

快速回复 返回顶部 返回列表