找回密码

蓝光电影网

查看: 7|回复: 0

[剧情] 六百英里 600.Miles.2015.1080p.BluRay.x264-USURY 6.56GB

[复制链接]
蓝光币
519
发表于 2020-11-7 10:10:34 | 显示全部楼层 |阅读模式


◎译  名 六百英里/600 Miles/命悬六百哩(台)
◎片  名 600 Millas
◎年  代 2015
◎产  地 墨西哥,美国
◎类  别 剧情 / 惊悚
◎语  言 西班牙语,英语
◎上映日期 2015-02-06(柏林电影节)
◎IMDb评分  5.4/10 from 2182 users
◎IMDb链接  https://www.imdb.com/title/tt3685622/
◎豆瓣评分 6.1/10 from 668 users
◎豆瓣链接 https://movie.douban.com/subject/25886314/
◎片  长 85分钟
◎导  演 加布里埃尔·利普斯坦 Gabriel Ripstein
◎编  剧 加布里埃尔·利普斯坦 Gabriel Ripstein / 伊萨·洛佩兹 Issa López
◎主  演 蒂姆·罗斯 Tim Roth
       哈里森·托马斯 Harrison Thomas
       莫妮卡·德尔·卡门 Mónica Del Carmen
       格瑞格·鲁兹 Greg Lutz
       哈里斯·肯德尔 Harris Kendall
       诺伊·埃尔南德斯 Noé Hernández
◎标  签 墨西哥 | 犯罪 | 剧情 | 2015 | 美国 | TimRoth | 墨西哥电影 | 柏林电影节
◎简  介


  盧比歐為凶恶的墨西哥販毒團體走私槍械,美國ATF幹員漢克試圖拘系違法的盧比歐反被對方綁架,盧比歐決定將漢克帶回墨西哥交給老闆決定生死,但在這六百英里的長途观光中,兩人逐漸成為朋友。
◎获奖情况
  第65届柏林国际电影节 ?(2015)
  最好童贞作奖 加布里埃尔·利普斯坦
  
  第63届圣塞巴斯蒂安国际电影节 ?(2015)
  地平线大奖(提名) 加布里埃尔·利普斯坦
  
  第9届FIRST青年电影展 ?(2015)
  比赛评委会大奖-长片类(提名)
  1. Video
  2. ID                                       : 1
  3. Format                                   : AVC
  4. Format/Info                              : Advanced Video Codec
  5. Format profile                           : [email protected]
  6. Format settings                          : CABAC / 4 Ref Frames
  7. Format settings, CABAC                   : Yes
  8. Format settings, Reference frames        : 4 frames
  9. Codec ID                                 : V_MPEG4/ISO/AVC
  10. Duration                                 : 1 h 23 min
  11. Bit rate                                 : 9 696 kb/s
  12. Width                                    : 1 920 pixels
  13. Height                                   : 1 040 pixels
  14. Display aspect ratio                     : 1.85:1
  15. Frame rate mode                          : Constant
  16. Frame rate                               : 23.976 FPS
  17. Color space                              : YUV
  18. Chroma subsampling                       : 4:2:0
  19. Bit depth                                : 8 bits
  20. Scan type                                : Progressive
  21. Bits/(Pixel*Frame)                       : 0.203
  22. Stream size                              : 5.68 GiB (87%)
  23. Writing library                          : x264 core 148 r2692 64f4e24
  24. Encoding settings                        : cabac=1 / ref=4 / deblock=1:0:0 / analyse=0x3:0x133 / me=umh / subme=9 / psy=1 / psy_rd=1.00:0.00 / mixed_ref=1 / me_range=16 / chroma_me=1 / trellis=1 / 8x8dct=1 / cqm=0 / deadzone=21,11 / fast_pskip=0 / chroma_qp_offset=-2 / threads=32 / lookahead_threads=2 / sliced_threads=0 / nr=0 / decimate=1 / interlaced=0 / bluray_compat=0 / constrained_intra=0 / bframes=3 / b_pyramid=2 / b_adapt=2 / b_bias=0 / direct=3 / weightb=1 / open_gop=0 / weightp=2 / keyint=250 / keyint_min=23 / scenecut=40 / intra_refresh=0 / rc_lookahead=50 / rc=2pass / mbtree=1 / bitrate=9696 / ratetol=1.0 / qcomp=0.60 / qpmin=0 / qpmax=69 / qpstep=4 / cplxblur=20.0 / qblur=0.5 / ip_ratio=1.40 / aq=1:1.00
  25. Language                                 : English
  26. Default                                  : Yes
  27. Forced                                   : No

  28. Audio
  29. ID                                       : 2
  30. Format                                   : DTS
  31. Format/Info                              : Digital Theater Systems
  32. Codec ID                                 : A_DTS
  33. Duration                                 : 1 h 23 min
  34. Bit rate mode                            : Constant
  35. Bit rate                                 : 1 509 kb/s
  36. Channel(s)                               : 6 channels
  37. Channel layout                           : C L R Ls Rs LFE
  38. Sampling rate                            : 48.0 kHz
  39. Frame rate                               : 93.750 FPS (512 SPF)
  40. Bit depth                                : 24 bits
  41. Compression mode                         : Lossy
  42. Stream size                              : 904 MiB (13%)
  43. Language                                 : English
  44. Default                                  : Yes
  45. Forced                                   : No

  46. Text
  47. ID                                       : 3
  48. Format                                   : UTF-8
  49. Codec ID                                 : S_TEXT/UTF8
  50. Codec ID/Info                            : UTF-8 Plain Text
  51. Duration                                 : 1 h 10 min
  52. Bit rate                                 : 15 b/s
  53. Count of elements                        : 359
  54. Stream size                              : 8.28 KiB (0%)
  55. Title                                    : forced
  56. Language                                 : English
  57. Default                                  : Yes
  58. Forced                                   : Yes

  59. Menu
  60. 00:00:00.000                             : en:00:00:00.000
  61. 00:07:11.723                             : en:00:07:11.723
  62. 00:13:00.738                             : en:00:13:00.738
  63. 00:21:31.916                             : en:00:21:31.916
  64. 00:27:45.038                             : en:00:27:45.038
  65. 00:34:34.489                             : en:00:34:34.489
  66. 00:41:15.098                             : en:00:41:15.098
  67. 00:47:49.325                             : en:00:47:49.325
  68. 00:54:52.498                             : en:00:54:52.498
  69. 01:04:11.681                             : en:01:04:11.681
  70. 01:09:56.901                             : en:01:09:56.901
  71. 01:17:57.339                             : en:01:17:57.339
  72. 00:10:00.000                             : en:00:10:00.000
复制代码




                                       
                                       

                                       
                                       
                                       




回复

使用道具 举报

懒得打字嘛,点击右侧快捷回复 【右侧内容,后台自定义】
您需要登录后才可以回帖 登录 | 立即加入

本版积分规则

Archiver|小黑屋| 蓝光电影网 |网站地图

Copyright © 2021 Comsenz Inc. Powered by 蓝光电影网

蓝光电影网

本站内容由用户自主分享和转载自互联网,转载目的在于传递更多信息,并不代表本网赞同其观点和对其真实性负责。

如有侵权、违反国家法律政策行为,请联系我们,我们会第一时间及时清除和处理!

举报反馈邮箱:[email protected]

快速回复 返回顶部 返回列表