找回密码

蓝光电影网

查看: 11|回复: 0

[剧情] 霓虹牛 Neon.Bull.2015.LIMITED.1080p.BluRay.x264-USURY 7.65GB

[复制链接]
蓝光币
515
发表于 2020-11-7 10:07:35 | 显示全部楼层 |阅读模式


◎译  名 霓虹牛/Neon Bull/虹牛(港)
◎片  名 Boi Neon
◎年  代 2015
◎产  地 巴西,乌拉圭,荷兰
◎类  别 剧情
◎语  言 葡萄牙语
◎上映日期 2015-09-03(威尼斯电影节)
◎IMDb评分  6.8/10 from 2741 users
◎IMDb链接  https://www.imdb.com/title/tt4899406/
◎豆瓣评分 6.5/10 from 1135 users
◎豆瓣链接 https://movie.douban.com/subject/26582031/
◎片  长 101分钟
◎导  演 加布里埃尔·马斯卡罗 Gabriel Mascaro
◎编  剧 加布里埃尔·马斯卡罗 Gabriel Mascaro
◎主  演 朱利安诺·卡扎雷 Juliano Cazarré
       梅芙·金琴丝 Maeve Jinkings
◎标  签 巴西 | 剧情 | 2015 | 文艺 | 情色 | 巴西电影 | 拉美 | 荷兰
◎简  介


  巴西東北的草原邊,日日上演暴烈的牛仔競技戲碼。汉子負責照顧後台牛隻,女人身兼情色秀場舞孃,白天在塵土黃沙中揮汗,夜裡飽漲情慾開始橫流。他們配合養育小女孩卡卡,以卡車和门路為家,遊牧到下一個表演地點。當地正兴旺發展時尚紡織工廠,閃亮亮片、精緻布料帶來新的野心,卻也威脅著他們的邊緣保存,孤單的靈魂、生活的未來想像,都在原始慾望的漩渦中四處衝撞,掙扎著尋找出口。
◎获奖情况
  第72届威尼斯电影节 ?(2015)
  地平线单元奖最好影片(提名) 加布里埃尔·马斯卡罗
  1. Video
  2. ID                                       : 1
  3. Format                                   : AVC
  4. Format/Info                              : Advanced Video Codec
  5. Format profile                           : [email protected]
  6. Format settings                          : CABAC / 5 Ref Frames
  7. Format settings, CABAC                   : Yes
  8. Format settings, Reference frames        : 5 frames
  9. Codec ID                                 : V_MPEG4/ISO/AVC
  10. Duration                                 : 1 h 44 min
  11. Bit rate                                 : 9 019 kb/s
  12. Width                                    : 1 920 pixels
  13. Height                                   : 808 pixels
  14. Display aspect ratio                     : 2.40:1
  15. Frame rate mode                          : Constant
  16. Frame rate                               : 23.976 FPS
  17. Color space                              : YUV
  18. Chroma subsampling                       : 4:2:0
  19. Bit depth                                : 8 bits
  20. Scan type                                : Progressive
  21. Bits/(Pixel*Frame)                       : 0.242
  22. Stream size                              : 6.55 GiB (86%)
  23. Writing library                          : x264 core 148 r2705 3f5ed56
  24. Encoding settings                        : cabac=1 / ref=5 / deblock=1:0:0 / analyse=0x3:0x133 / me=umh / subme=9 / psy=1 / psy_rd=1.00:0.00 / mixed_ref=1 / me_range=16 / chroma_me=1 / trellis=1 / 8x8dct=1 / cqm=0 / deadzone=21,11 / fast_pskip=0 / chroma_qp_offset=-2 / threads=18 / lookahead_threads=1 / sliced_threads=0 / nr=0 / decimate=1 / interlaced=0 / bluray_compat=0 / constrained_intra=0 / bframes=3 / b_pyramid=2 / b_adapt=2 / b_bias=0 / direct=3 / weightb=1 / open_gop=0 / weightp=2 / keyint=250 / keyint_min=23 / scenecut=40 / intra_refresh=0 / rc_lookahead=50 / rc=2pass / mbtree=1 / bitrate=9019 / ratetol=1.0 / qcomp=0.60 / qpmin=0 / qpmax=69 / qpstep=4 / cplxblur=20.0 / qblur=0.5 / ip_ratio=1.40 / aq=1:1.00
  25. Language                                 : English
  26. Default                                  : Yes
  27. Forced                                   : No

  28. Audio
  29. ID                                       : 2
  30. Format                                   : DTS
  31. Format/Info                              : Digital Theater Systems
  32. Codec ID                                 : A_DTS
  33. Duration                                 : 1 h 44 min
  34. Bit rate mode                            : Constant
  35. Bit rate                                 : 1 509 kb/s
  36. Channel(s)                               : 6 channels
  37. Channel layout                           : C L R Ls Rs LFE
  38. Sampling rate                            : 48.0 kHz
  39. Frame rate                               : 93.750 FPS (512 SPF)
  40. Bit depth                                : 24 bits
  41. Compression mode                         : Lossy
  42. Stream size                              : 1.10 GiB (14%)
  43. Language                                 : Portuguese
  44. Default                                  : Yes
  45. Forced                                   : No

  46. Text
  47. ID                                       : 3
  48. Format                                   : UTF-8
  49. Codec ID                                 : S_TEXT/UTF8
  50. Codec ID/Info                            : UTF-8 Plain Text
  51. Duration                                 : 1 h 30 min
  52. Bit rate                                 : 35 b/s
  53. Count of elements                        : 707
  54. Stream size                              : 23.7 KiB (0%)
  55. Title                                    : forced
  56. Language                                 : English
  57. Default                                  : Yes
  58. Forced                                   : Yes

  59. Menu
  60. 00:00:00.000                             : en:00:00:00.000
  61. 00:08:42.147                             : en:00:08:42.147
  62. 00:19:02.350                             : en:00:19:02.350
  63. 00:28:07.352                             : en:00:28:07.352
  64. 00:41:59.726                             : en:00:41:59.726
  65. 00:51:24.290                             : en:00:51:24.290
  66. 00:59:32.319                             : en:00:59:32.319
  67. 01:09:05.892                             : en:01:09:05.892
  68. 01:22:50.340                             : en:01:22:50.340
  69. 01:36:29.450                             : en:01:36:29.450
复制代码




                                       
                                       

                                       
                                       
                                       




回复

使用道具 举报

懒得打字嘛,点击右侧快捷回复 【右侧内容,后台自定义】
您需要登录后才可以回帖 登录 | 立即加入

本版积分规则

Archiver|小黑屋| 蓝光电影网 |网站地图

Copyright © 2021 Comsenz Inc. Powered by 蓝光电影网

蓝光电影网

本站内容由用户自主分享和转载自互联网,转载目的在于传递更多信息,并不代表本网赞同其观点和对其真实性负责。

如有侵权、违反国家法律政策行为,请联系我们,我们会第一时间及时清除和处理!

举报反馈邮箱:[email protected]

快速回复 返回顶部 返回列表