找回密码

蓝光电影网

查看: 12|回复: 0

[剧情] 夜魔附身 Der.Nachtmahr.2015.1080p.BluRay.x264-USURY 7.65GB

[复制链接]
蓝光币
519
发表于 2020-11-7 10:01:31 | 显示全部楼层 |阅读模式


◎译  名 夜魔附身/The Nightmare
◎片  名 Der Nachtmahr
◎年  代 2015
◎产  地 德国
◎类  别 剧情 / 悬疑
◎语  言 德语,英语
◎上映日期 2015-08-10(洛迦诺电影节) / 2016-05-26(德国)
◎IMDb评分  6.6/10 from 2518 users
◎IMDb链接  https://www.imdb.com/title/tt3141498/
◎豆瓣评分 6.3/10 from 247 users
◎豆瓣链接 https://movie.douban.com/subject/26552342/
◎片  长 88分钟
◎导  演 阿希姆·博尔哈克 Achim Bornhak
◎编  剧 阿希姆·博尔哈克 Achim Bornhak
◎主  演 卡罗林·根茨科 Carolyn Genzkow
       西娜·特科奇 Sina Tkotsch
       威尔森·冈萨雷斯·奥森耐特 Wilson Gonzalez Ochsenknecht
       阿诺德·克拉威特 Arnd Klawitter
◎标  签 德国 | 悬疑 | 可骇 | 2015 | 惊悚 | 奇异 | 青春 | 2016
◎简  介


  故事论述一位生活在德国柏林的少女Tina,逐日跟朋友们到夜店玩乐,嗑药、舞蹈,夜夜歌乐的生活让她起头发生幻觉,她起头看见一只怪物起头围绕在她身旁,不晓得是梦乡还是现实的Tina,起头向旁边追求辅佐,不意朋友、家人都不愿相信她,还质疑那是她精神异常所看见的幻觉,乞助无门的Tina只好起头服用精神药,但在这疾苦的进程中,却意外地和怪物共生共存…
◎获奖情况
  第68届洛迦诺国际电影节 ?(2015)
  今世电影人单元金豹奖(提名) 阿希姆·博尔哈克
  1. Video
  2. ID                                       : 1
  3. Format                                   : AVC
  4. Format/Info                              : Advanced Video Codec
  5. Format profile                           : [email protected]
  6. Format settings                          : CABAC / 5 Ref Frames
  7. Format settings, CABAC                   : Yes
  8. Format settings, Reference frames        : 5 frames
  9. Codec ID                                 : V_MPEG4/ISO/AVC
  10. Duration                                 : 1 h 31 min
  11. Bit rate                                 : 10.5 Mb/s
  12. Width                                    : 1 920 pixels
  13. Height                                   : 808 pixels
  14. Display aspect ratio                     : 2.40:1
  15. Frame rate mode                          : Constant
  16. Frame rate                               : 23.976 (24000/1001/189150) FPS
  17. Color space                              : YUV
  18. Chroma subsampling                       : 4:2:0
  19. Bit depth                                : 8 bits
  20. Scan type                                : Progressive
  21. Bits/(Pixel*Frame)                       : 0.281
  22. Stream size                              : 6.69 GiB (87%)
  23. Writing library                          : x264 core 148 r2705 3f5ed56
  24. Encoding settings                        : cabac=1 / ref=5 / deblock=1:0:0 / analyse=0x3:0x133 / me=umh / subme=9 / psy=1 / psy_rd=1.00:0.00 / mixed_ref=1 / me_range=16 / chroma_me=1 / trellis=2 / 8x8dct=1 / cqm=0 / deadzone=21,11 / fast_pskip=0 / chroma_qp_offset=-2 / threads=25 / lookahead_threads=2 / sliced_threads=0 / nr=0 / decimate=1 / interlaced=0 / bluray_compat=0 / constrained_intra=0 / bframes=3 / b_pyramid=2 / b_adapt=2 / b_bias=0 / direct=3 / weightb=1 / open_gop=0 / weightp=2 / keyint=250 / keyint_min=23 / scenecut=40 / intra_refresh=0 / rc_lookahead=50 / rc=2pass / mbtree=1 / bitrate=10463 / ratetol=1.0 / qcomp=0.60 / qpmin=0 / qpmax=69 / qpstep=4 / cplxblur=20.0 / qblur=0.5 / ip_ratio=1.40 / aq=1:1.00
  25. Language                                 : English
  26. Default                                  : Yes
  27. Forced                                   : No

  28. Audio
  29. ID                                       : 2
  30. Format                                   : DTS
  31. Format/Info                              : Digital Theater Systems
  32. Codec ID                                 : A_DTS
  33. Duration                                 : 1 h 31 min
  34. Bit rate mode                            : Constant
  35. Bit rate                                 : 1 509 kb/s
  36. Channel(s)                               : 6 channels
  37. Channel layout                           : C L R Ls Rs LFE
  38. Sampling rate                            : 48.0 kHz
  39. Frame rate                               : 93.750 FPS (512 SPF)
  40. Bit depth                                : 24 bits
  41. Compression mode                         : Lossy
  42. Stream size                              : 988 MiB (13%)
  43. Language                                 : German
  44. Default                                  : Yes
  45. Forced                                   : No

  46. Text
  47. ID                                       : 3
  48. Format                                   : UTF-8
  49. Codec ID                                 : S_TEXT/UTF8
  50. Codec ID/Info                            : UTF-8 Plain Text
  51. Duration                                 : 1 h 24 min
  52. Bit rate                                 : 23 b/s
  53. Count of elements                        : 484
  54. Stream size                              : 14.6 KiB (0%)
  55. Title                                    : forced
  56. Language                                 : English
  57. Default                                  : Yes
  58. Forced                                   : Yes

  59. Menu
  60. 00:00:00.000                             : en:00:00:00.000
  61. 00:12:00.178                             : en:00:12:00.178
  62. 00:21:46.555                             : en:00:21:46.555
  63. 00:29:10.082                             : en:00:29:10.082
  64. 00:34:57.470                             : en:00:34:57.470
  65. 00:44:17.154                             : en:00:44:17.154
  66. 01:02:25.408                             : en:01:02:25.408
  67. 01:14:41.852                             : en:01:14:41.852
  68. 01:27:03.218                             : en:01:27:03.218
复制代码




                                       
                                       

                                       
                                       
                                       




回复

使用道具 举报

懒得打字嘛,点击右侧快捷回复 【右侧内容,后台自定义】
您需要登录后才可以回帖 登录 | 立即加入

本版积分规则

Archiver|小黑屋| 蓝光电影网 |网站地图

Copyright © 2021 Comsenz Inc. Powered by 蓝光电影网

蓝光电影网

本站内容由用户自主分享和转载自互联网,转载目的在于传递更多信息,并不代表本网赞同其观点和对其真实性负责。

如有侵权、违反国家法律政策行为,请联系我们,我们会第一时间及时清除和处理!

举报反馈邮箱:[email protected]

快速回复 返回顶部 返回列表