找回密码

蓝光电影网

查看: 19|回复: 0

[剧情] 血婚新娘/The Bride(英) The.Bride.2015.1080p.BluRay.x264-USURY 7.66GB

[复制链接]
蓝光币
519
发表于 2020-11-7 09:49:34 | 显示全部楼层 |阅读模式


◎译  名 血婚新娘/The Bride(英)
◎片  名 La novia
◎年  代 2015
◎产  地 西班牙,德国,土耳其
◎类  别 剧情
◎语  言 西班牙语
◎上映日期 2015-12-11(西班牙)
◎IMDb评分  6.7/10 from 2943 users
◎IMDb链接  https://www.imdb.com/title/tt2734566/
◎豆瓣评分 5.4/10 from 308 users
◎豆瓣链接 https://movie.douban.com/subject/26298219/
◎片  长 97分钟
◎导  演 宝拉·奥提兹 Paula Ortiz
◎编  剧 宝拉·奥提兹 Paula Ortiz / 费德里戈·加西亚·洛尔卡 Federico García Lorca
◎主  演 拉蒂西亚·多瑞拉 Leticia Dolera
       曼努埃拉·贝列斯 Manuela Vellés
       茵玛·奎斯塔 Inma Cuesta
       玛利亚·阿尔方萨·罗索 María Alfonsa Rosso
       阿谢尔·埃特塞安迪亚 Asier Etxeandia
       阿莱克斯·加西亚 álex García
       路易莎·加瓦萨 Luisa Gavasa
◎标  签 西班牙 | 剧情 | 西班牙电影 | 2015 | 恋爱 | 文艺 | 土耳其 | 德国
◎简  介


  Based on "Bodas de sangre" by Federico García Lorca, tells the story of a love triangle between two men and a woman. Two lovers carried away by their passion defying all moral and social rules even challenging their own judgment. The same day of her wedding, the bride and her lover escape on horseback to live their love. Their disobedience will have devastating consequences.
◎获奖情况
  第30届西班牙戈雅奖 ?(2016)
  最好影片(提名)
  最好导演(提名) 宝拉·奥提兹
  最好男配角(提名) 阿谢尔·埃特塞安迪亚
  最好女配角(提名) 茵玛·奎斯塔
  最好女配角(提名) 路易莎·加瓦萨
  最好新人男演员(提名) 阿莱克斯·加西亚
  最好改编剧本(提名)
  最好摄影
  最好艺术指导(提名)
  最好音效(提名)
  最好化装与发型(提名)
  最好原创音乐(提名) 梅林茂
  1. Video
  2. ID                                       : 1
  3. Format                                   : AVC
  4. Format/Info                              : Advanced Video Codec
  5. Format profile                           : [email protected]
  6. Format settings                          : CABAC / 5 Ref Frames
  7. Format settings, CABAC                   : Yes
  8. Format settings, Reference frames        : 5 frames
  9. Codec ID                                 : V_MPEG4/ISO/AVC
  10. Duration                                 : 1 h 38 min
  11. Bit rate                                 : 9 610 kb/s
  12. Width                                    : 1 920 pixels
  13. Height                                   : 808 pixels
  14. Display aspect ratio                     : 2.40:1
  15. Frame rate mode                          : Constant
  16. Frame rate                               : 24.000 FPS
  17. Color space                              : YUV
  18. Chroma subsampling                       : 4:2:0
  19. Bit depth                                : 8 bits
  20. Scan type                                : Progressive
  21. Bits/(Pixel*Frame)                       : 0.258
  22. Stream size                              : 6.62 GiB (86%)
  23. Writing library                          : x264 core 148 r2692 64f4e24
  24. Encoding settings                        : cabac=1 / ref=5 / deblock=1:0:0 / analyse=0x3:0x133 / me=umh / subme=9 / psy=1 / psy_rd=1.00:0.00 / mixed_ref=1 / me_range=16 / chroma_me=1 / trellis=1 / 8x8dct=1 / cqm=0 / deadzone=21,11 / fast_pskip=0 / chroma_qp_offset=-2 / threads=18 / lookahead_threads=1 / sliced_threads=0 / nr=0 / decimate=1 / interlaced=0 / bluray_compat=0 / constrained_intra=0 / bframes=3 / b_pyramid=2 / b_adapt=2 / b_bias=0 / direct=3 / weightb=1 / open_gop=0 / weightp=2 / keyint=250 / keyint_min=23 / scenecut=40 / intra_refresh=0 / rc_lookahead=50 / rc=2pass / mbtree=1 / bitrate=9610 / ratetol=1.0 / qcomp=0.60 / qpmin=0 / qpmax=69 / qpstep=4 / cplxblur=20.0 / qblur=0.5 / ip_ratio=1.40 / aq=1:1.00
  25. Language                                 : English
  26. Default                                  : Yes
  27. Forced                                   : No

  28. Audio
  29. ID                                       : 2
  30. Format                                   : DTS
  31. Format/Info                              : Digital Theater Systems
  32. Codec ID                                 : A_DTS
  33. Duration                                 : 1 h 38 min
  34. Bit rate mode                            : Constant
  35. Bit rate                                 : 1 509 kb/s
  36. Channel(s)                               : 6 channels
  37. Channel layout                           : C L R Ls Rs LFE
  38. Sampling rate                            : 48.0 kHz
  39. Frame rate                               : 93.750 FPS (512 SPF)
  40. Bit depth                                : 24 bits
  41. Compression mode                         : Lossy
  42. Stream size                              : 1.04 GiB (14%)
  43. Language                                 : Spanish
  44. Default                                  : Yes
  45. Forced                                   : No

  46. Text
  47. ID                                       : 3
  48. Format                                   : UTF-8
  49. Codec ID                                 : S_TEXT/UTF8
  50. Codec ID/Info                            : UTF-8 Plain Text
  51. Duration                                 : 1 h 29 min
  52. Bit rate                                 : 35 b/s
  53. Count of elements                        : 765
  54. Stream size                              : 23.2 KiB (0%)
  55. Title                                    : forced
  56. Language                                 : English
  57. Default                                  : Yes
  58. Forced                                   : Yes

  59. Menu
  60. 00:00:00.000                             : en:00:00:00.000
  61. 00:06:18.083                             : en:00:06:18.083
  62. 00:17:51.917                             : en:00:17:51.917
  63. 00:22:56.542                             : en:00:22:56.542
  64. 00:27:50.542                             : en:00:27:50.542
  65. 00:32:26.875                             : en:00:32:26.875
  66. 00:44:01.583                             : en:00:44:01.583
  67. 00:53:52.667                             : en:00:53:52.667
  68. 01:00:21.125                             : en:01:00:21.125
  69. 01:11:28.500                             : en:01:11:28.500
  70. 01:19:06.792                             : en:01:19:06.792
  71. 01:26:06.083                             : en:01:26:06.083
复制代码




                                       
                                       

                                       
                                       
                                       




回复

使用道具 举报

懒得打字嘛,点击右侧快捷回复 【右侧内容,后台自定义】
您需要登录后才可以回帖 登录 | 立即加入

本版积分规则

Archiver|小黑屋| 蓝光电影网 |网站地图

Copyright © 2021 Comsenz Inc. Powered by 蓝光电影网

蓝光电影网

本站内容由用户自主分享和转载自互联网,转载目的在于传递更多信息,并不代表本网赞同其观点和对其真实性负责。

如有侵权、违反国家法律政策行为,请联系我们,我们会第一时间及时清除和处理!

举报反馈邮箱:[email protected]

快速回复 返回顶部 返回列表