找回密码

蓝光电影网

查看: 23|回复: 0

[剧情] 橄榄树 The.Olive.Tree.2016.1080p.BluRay.x264-USURY 7.65GB

[复制链接]
蓝光币
519
发表于 2020-11-7 09:43:35 | 显示全部楼层 |阅读模式


◎译  名 橄榄树/The Olive Tree/再会橄榄树(台)
◎片  名 El olivo
◎年  代 2016
◎产  地 西班牙
◎类  别 剧情 / 笑剧
◎语  言 西班牙语
◎上映日期 2016-05-06(西班牙)
◎IMDb评分  6.8/10 from 3142 users
◎IMDb链接  https://www.imdb.com/title/tt3655972/
◎豆瓣评分 6.7/10 from 337 users
◎豆瓣链接 https://movie.douban.com/subject/26633326/
◎片  长 100分钟
◎导  演 伊西亚尔·博利亚因 Icíar Bollaín
◎编  剧 保罗·拉弗蒂 Paul Laverty
◎主  演 安娜·卡斯蒂罗 Anna Castillo
       哈维尔·古铁雷斯 Javier Gutiérrez
       尤尔根·克莱恩 Jürgen Klein
       于谷鸣 Yu guming
◎标  签 西班牙 | 西班牙电影 | 家庭 | 剧情 | 文艺 | 2016 | 人生 | 亲情
◎简  介


  《橄榄树》是一部西班牙影片,报告了叛逆女孩阿尔玛为了病重的爷爷,决心寻回15年前被卖掉的两千多年树龄的橄榄树。爷爷爱惜顾惜橄榄树,和其他为了好处而不惜破坏情况的人构成鲜明对照。阿尔玛决心寻树的行动也逐步传染了其他人。影片指导人们关注情况、重视传承,片中触及亲情、友谊等,不乏各类感动的细节。
◎获奖情况
  第31届西班牙戈雅奖 ?(2017)
  最好男配角(提名) 哈维尔·古铁雷斯
  最好新人女演员 安娜·卡斯蒂罗
  最好原创剧本(提名) 保罗·拉弗蒂
  最好原创音乐(提名) PascalGaigne
  1. Video
  2. ID                                       : 1
  3. Format                                   : AVC
  4. Format/Info                              : Advanced Video Codec
  5. Format profile                           : [email protected]
  6. Format settings                          : CABAC / 5 Ref Frames
  7. Format settings, CABAC                   : Yes
  8. Format settings, Reference frames        : 5 frames
  9. Codec ID                                 : V_MPEG4/ISO/AVC
  10. Duration                                 : 1 h 38 min
  11. Bit rate                                 : 9 608 kb/s
  12. Width                                    : 1 920 pixels
  13. Height                                   : 824 pixels
  14. Display aspect ratio                     : 2.35:1
  15. Frame rate mode                          : Constant
  16. Frame rate                               : 23.976 (24000/1001/189150) FPS
  17. Color space                              : YUV
  18. Chroma subsampling                       : 4:2:0
  19. Bit depth                                : 8 bits
  20. Scan type                                : Progressive
  21. Bits/(Pixel*Frame)                       : 0.253
  22. Stream size                              : 6.61 GiB (86%)
  23. Writing library                          : x264 core 148 r2744 b97ae06
  24. Encoding settings                        : cabac=1 / ref=5 / deblock=1:-3:-3 / analyse=0x3:0x133 / me=umh / subme=9 / psy=1 / psy_rd=1.00:0.00 / mixed_ref=1 / me_range=16 / chroma_me=1 / trellis=2 / 8x8dct=1 / cqm=0 / deadzone=21,11 / fast_pskip=0 / chroma_qp_offset=-2 / threads=18 / lookahead_threads=1 / sliced_threads=0 / nr=0 / decimate=1 / interlaced=0 / bluray_compat=0 / constrained_intra=0 / bframes=3 / b_pyramid=2 / b_adapt=1 / b_bias=0 / direct=3 / weightb=1 / open_gop=0 / weightp=2 / keyint=250 / keyint_min=23 / scenecut=40 / intra_refresh=0 / rc_lookahead=50 / rc=2pass / mbtree=1 / bitrate=9608 / ratetol=1.0 / qcomp=0.60 / qpmin=0 / qpmax=69 / qpstep=4 / cplxblur=20.0 / qblur=0.5 / ip_ratio=1.40 / aq=1:1.00
  25. Language                                 : English
  26. Default                                  : Yes
  27. Forced                                   : No

  28. Audio
  29. ID                                       : 2
  30. Format                                   : DTS
  31. Format/Info                              : Digital Theater Systems
  32. Codec ID                                 : A_DTS
  33. Duration                                 : 1 h 38 min
  34. Bit rate mode                            : Constant
  35. Bit rate                                 : 1 509 kb/s
  36. Channel(s)                               : 6 channels
  37. Channel layout                           : C L R Ls Rs LFE
  38. Sampling rate                            : 48.0 kHz
  39. Frame rate                               : 93.750 FPS (512 SPF)
  40. Bit depth                                : 24 bits
  41. Compression mode                         : Lossy
  42. Stream size                              : 1.04 GiB (14%)
  43. Language                                 : Spanish
  44. Default                                  : Yes
  45. Forced                                   : No

  46. Text
  47. ID                                       : 3
  48. Format                                   : UTF-8
  49. Codec ID                                 : S_TEXT/UTF8
  50. Codec ID/Info                            : UTF-8 Plain Text
  51. Duration                                 : 1 h 32 min
  52. Bit rate                                 : 41 b/s
  53. Count of elements                        : 911
  54. Stream size                              : 28.0 KiB (0%)
  55. Title                                    : forced
  56. Language                                 : English
  57. Default                                  : Yes
  58. Forced                                   : Yes

  59. Menu
  60. 00:00:00.000                             : en:00:00:00.000
  61. 00:10:02.936                             : en:00:10:02.936
  62. 00:19:58.280                             : en:00:19:58.280
  63. 00:29:58.338                             : en:00:29:58.338
  64. 00:40:05.903                             : en:00:40:05.903
  65. 00:49:55.492                             : en:00:49:55.492
  66. 01:00:05.101                             : en:01:00:05.101
  67. 01:10:07.495                             : en:01:10:07.495
  68. 01:20:04.049                             : en:01:20:04.049
  69. 01:30:05.233                             : en:01:30:05.233
复制代码




                                       
                                       

                                       
                                       
                                       




回复

使用道具 举报

懒得打字嘛,点击右侧快捷回复 【右侧内容,后台自定义】
您需要登录后才可以回帖 登录 | 立即加入

本版积分规则

Archiver|小黑屋| 蓝光电影网 |网站地图

Copyright © 2021 Comsenz Inc. Powered by 蓝光电影网

蓝光电影网

本站内容由用户自主分享和转载自互联网,转载目的在于传递更多信息,并不代表本网赞同其观点和对其真实性负责。

如有侵权、违反国家法律政策行为,请联系我们,我们会第一时间及时清除和处理!

举报反馈邮箱:[email protected]

快速回复 返回顶部 返回列表