找回密码

蓝光电影网

查看: 13|回复: 0

[剧情] 无辜 The.Innocent.1976.1080p.BluRay.x264-USURY 9.84GB

[复制链接]
蓝光币
515
发表于 2020-11-7 09:40:32 | 显示全部楼层 |阅读模式


◎译  名 无辜/The Innocent/无辜的人/明净之軀
◎片  名 L'innocente
◎年  代 1976
◎产  地 意大利,法国
◎类  别 剧情 / 恋爱
◎语  言 意大利语
◎上映日期 1976-05-18(戛纳电影节) / 1976-09-09(意大利)
◎IMDb评分  7.4/10 from 3219 users
◎IMDb链接  https://www.imdb.com/title/tt0074686/
◎豆瓣评分 7.8/10 from 433 users
◎豆瓣链接 https://movie.douban.com/subject/1302922/
◎片  长 129分钟(意大利)
◎导  演 卢基诺·维斯康蒂 Luchino Visconti
◎编  剧 加布里埃莱·邓南遮 Gabriele D'Annunzio / 苏索·切基·达米科 Suso Cecchi d'Amico / 恩里科·梅迪欧力 Enrico Medioli / 卢基诺·维斯康蒂 Luchino Visconti
◎主  演 吉安卡罗·吉安尼尼 Giancarlo Giannini
       劳拉·安托内利 Laura Antonelli
       詹妮弗·欧内尔 Jennifer O'Neill
       里娜·莫雷利 Rina Morelli
       马西莫·吉洛蒂 Massimo Girotti
       迪戴·豪德品 Didier Haudepin
       玛丽·杜布瓦 Marie Dubois
       罗伯塔·帕拉迪尼 Roberta Paladini
       克洛德·曼 Claude Mann
       马克·波雷尔 Marc Porel
       菲利普·埃尔桑 Philippe Hersent
       埃尔薇拉·科尔泰斯 Elvira Cortese
       西里娅·贝蒂 Siria Betti
       莫蕊拉·皮娅若 Marina Pierro
       Vittorio Zarfati
       玛格丽特·霍洛维茨 Margherita Horowitz
◎标  签 意大利 | 维斯康蒂 | 意大利电影 | 卢奇诺·维斯康蒂 | 恋爱 | 1970s | LuchinoVisconti | Luchino_Visconti
◎简  介


  图里奥公爵(吉安卡罗·吉安尼尼 Giancarlo Giannini 饰)迎娶了美丽的妻子秋丽安娜(劳拉·安托妮莉 Laura Antonelli 饰),虽然家有娇妻,可是天性好色的图里奥公爵还是全日在里面招蜂引蝶,这让年轻的秋丽安娜感应很是的孤单。
  
  随着时候的推移,秋丽安娜渐渐没法忍受这样压制的生活,一次偶然中,她相逢了一位名叫史蒂芬诺(马西莫·吉洛提 Massimo Girotti 饰)的男人。史蒂芬诺是一位贫困的作家,虽然身无分文,可是他的才华深深的吸引了秋丽安娜,两人渐渐走到了一路。终极,这段背德的豪情被图里奥公爵所知晓,但是最使他感应愤慨的并非妻子对自己的不忠,而是史蒂芬诺卑贱的身份。
  1. Video
  2. ID                                       : 1
  3. Format                                   : AVC
  4. Format/Info                              : Advanced Video Codec
  5. Format profile                           : [email protected]
  6. Format settings                          : CABAC / 5 Ref Frames
  7. Format settings, CABAC                   : Yes
  8. Format settings, Reference frames        : 5 frames
  9. Codec ID                                 : V_MPEG4/ISO/AVC
  10. Duration                                 : 2 h 9 min
  11. Bit rate                                 : 10.7 Mb/s
  12. Width                                    : 1 920 pixels
  13. Height                                   : 824 pixels
  14. Display aspect ratio                     : 2.35:1
  15. Frame rate mode                          : Constant
  16. Frame rate                               : 23.976 (24000/1001/189150) FPS
  17. Color space                              : YUV
  18. Chroma subsampling                       : 4:2:0
  19. Bit depth                                : 8 bits
  20. Scan type                                : Progressive
  21. Bits/(Pixel*Frame)                       : 0.282
  22. Stream size                              : 9.67 GiB (98%)
  23. Writing library                          : x264 core 148 r2744 b97ae06
  24. Encoding settings                        : cabac=1 / ref=5 / deblock=1:-3:-3 / analyse=0x3:0x133 / me=umh / subme=9 / psy=1 / psy_rd=1.00:0.00 / mixed_ref=1 / me_range=16 / chroma_me=1 / trellis=2 / 8x8dct=1 / cqm=0 / deadzone=21,11 / fast_pskip=0 / chroma_qp_offset=-2 / threads=18 / lookahead_threads=1 / sliced_threads=0 / nr=0 / decimate=1 / interlaced=0 / bluray_compat=0 / constrained_intra=0 / bframes=3 / b_pyramid=2 / b_adapt=1 / b_bias=0 / direct=3 / weightb=1 / open_gop=0 / weightp=2 / keyint=250 / keyint_min=23 / scenecut=40 / intra_refresh=0 / rc_lookahead=50 / rc=2pass / mbtree=1 / bitrate=10679 / ratetol=1.0 / qcomp=0.60 / qpmin=0 / qpmax=69 / qpstep=4 / cplxblur=20.0 / qblur=0.5 / ip_ratio=1.40 / aq=1:1.00
  25. Language                                 : English
  26. Default                                  : Yes
  27. Forced                                   : No

  28. Audio
  29. ID                                       : 2
  30. Format                                   : FLAC
  31. Format/Info                              : Free Lossless Audio Codec
  32. Codec ID                                 : A_FLAC
  33. Duration                                 : 2 h 9 min
  34. Bit rate mode                            : Variable
  35. Bit rate                                 : 177 kb/s
  36. Channel(s)                               : 2 channels
  37. Channel layout                           : L R
  38. Sampling rate                            : 48.0 kHz
  39. Frame rate                               : 11.719 FPS (4096 SPF)
  40. Bit depth                                : 16 bits
  41. Compression mode                         : Lossless
  42. Stream size                              : 165 MiB (2%)
  43. Writing library                          : libFLAC 1.2.1 (UTC 2007-09-17)
  44. Language                                 : Italian
  45. Default                                  : Yes
  46. Forced                                   : No

  47. Text
  48. ID                                       : 3
  49. Format                                   : UTF-8
  50. Codec ID                                 : S_TEXT/UTF8
  51. Codec ID/Info                            : UTF-8 Plain Text
  52. Duration                                 : 2 h 8 min
  53. Bit rate                                 : 45 b/s
  54. Count of elements                        : 1329
  55. Stream size                              : 42.4 KiB (0%)
  56. Title                                    : forced
  57. Language                                 : English
  58. Default                                  : Yes
  59. Forced                                   : Yes

  60. Menu
  61. 00:00:00.000                             : en:00:00:00.000
  62. 00:03:21.743                             : en:00:03:21.743
  63. 00:11:52.128                             : en:00:11:52.128
  64. 00:20:09.834                             : en:00:20:09.834
  65. 00:28:12.274                             : en:00:28:12.274
  66. 00:37:53.605                             : en:00:37:53.605
  67. 00:46:46.053                             : en:00:46:46.053
  68. 00:54:34.605                             : en:00:54:34.605
  69. 01:06:51.341                             : en:01:06:51.341
  70. 01:14:50.486                             : en:01:14:50.486
  71. 01:25:00.429                             : en:01:25:00.429
  72. 01:31:46.042                             : en:01:31:46.042
  73. 01:41:51.439                             : en:01:41:51.439
  74. 01:50:30.332                             : en:01:50:30.332
  75. 02:05:38.197                             : en:02:05:38.197
复制代码




                                       
                                       

                                       
                                       
                                       




回复

使用道具 举报

懒得打字嘛,点击右侧快捷回复 【右侧内容,后台自定义】
您需要登录后才可以回帖 登录 | 立即加入

本版积分规则

Archiver|小黑屋| 蓝光电影网 |网站地图

Copyright © 2021 Comsenz Inc. Powered by 蓝光电影网

蓝光电影网

本站内容由用户自主分享和转载自互联网,转载目的在于传递更多信息,并不代表本网赞同其观点和对其真实性负责。

如有侵权、违反国家法律政策行为,请联系我们,我们会第一时间及时清除和处理!

举报反馈邮箱:[email protected]

快速回复 返回顶部 返回列表