找回密码

蓝光电影网

查看: 16|回复: 0

[剧情] 交战规则/交战守则 Rules.of.Engagement.2000.1080p.BluRay.x264.DTS-FGT 10.89GB

[复制链接]
蓝光币
515
发表于 2020-11-6 11:46:20 | 显示全部楼层 |阅读模式


◎译  名 交兵法则/交兵守则/国际公约/前方抵触/烈血的规条
◎片  名 Rules of Engagement
◎年  代 2000
◎产  地 美国,加拿大,英国,德国
◎类  别 剧情 / 行动 / 惊悚 / 战争
◎语  言 英语
◎上映日期 2000-03-31
◎IMDb评分  6.4/10 from 43989 users
◎IMDb链接  https://www.imdb.com/title/tt0160797/
◎豆瓣评分 7.3/10 from 1734 users
◎豆瓣链接 https://movie.douban.com/subject/1293905/
◎片  长 128 分钟
◎导  演 威廉·弗莱德金 William Friedkin
◎编  剧 斯蒂芬·加汉 Stephen Gaghan
◎主  演 汤米·李·琼斯 Tommy Lee Jones
       塞缪尔·杰克逊 Samuel L. Jackson
       安妮·阿彻 Anne Archer
       盖·皮尔斯 Guy Pearce
       本·金斯利 Ben Kingsley
◎标  签 战争 | 美国 | 政治 | 军事法庭 | 美国电影 | 人性 | 2000 | 电影
◎简  介


  老兵泰利(塞缪尔·杰克逊 Samuel L. Jackson 饰)面临着行将到来的审判,在审判中,他被控告在一次庇护大使的行动中对示威大众倡议了进犯,致使了近80名手无寸铁的无辜平民丧生。面临这一控告,泰利对峙自己的无辜,由于他晓得那些示威者并非手无寸铁,也是他们首先向大使馆倡议了打击。
  
  很快泰利就发现,一切的迹象都表白泰利处于优势职位。在审判成果还未揭穿之前,政府和军方似乎就已经将这起事务当做了一出丑闻,他们不但捏造了证词,更是消抹了一切对泰利有益的证据。面临这个诡计,泰利并不预备束手待毙,他联系了旧时的战友海斯律师(汤米·李·琼斯 Tommy Lee Jones 饰),希望在他的帮助下可以重获明净。
  1. Video
  2. ID                                       : 1
  3. Format                                   : AVC
  4. Format/Info                              : Advanced Video Codec
  5. Format profile                           : [email protected]
  6. Format settings                          : CABAC / 5 Ref Frames
  7. Format settings, CABAC                   : Yes
  8. Format settings, Reference frames        : 5 frames
  9. Codec ID                                 : V_MPEG4/ISO/AVC
  10. Duration                                 : 2 h 7 min
  11. Bit rate                                 : 10.7 Mb/s
  12. Width                                    : 1 920 pixels
  13. Height                                   : 726 pixels
  14. Display aspect ratio                     : 2.645
  15. Frame rate mode                          : Constant
  16. Frame rate                               : 24.000 FPS
  17. Color space                              : YUV
  18. Chroma subsampling                       : 4:2:0
  19. Bit depth                                : 8 bits
  20. Scan type                                : Progressive
  21. Bits/(Pixel*Frame)                       : 0.321
  22. Stream size                              : 9.33 GiB (86%)
  23. Writing library                          : x264 core 107 r1745 4785e8e
  24. Encoding settings                        : cabac=1 / ref=5 / deblock=1:-3:-3 / analyse=0x3:0x113 / me=umh / subme=10 / psy=1 / psy_rd=1.05:0.10 / mixed_ref=1 / me_range=64 / chroma_me=1 / trellis=2 / 8x8dct=1 / cqm=2 / deadzone=21,11 / fast_pskip=0 / chroma_qp_offset=-2 / threads=12 / sliced_threads=0 / nr=0 / decimate=1 / interlaced=0 / constrained_intra=0 / bframes=6 / b_pyramid=2 / b_adapt=2 / b_bias=0 / direct=3 / weightb=1 / open_gop=0 / weightp=2 / keyint=250 / keyint_min=24 / scenecut=40 / intra_refresh=0 / rc_lookahead=60 / rc=2pass / mbtree=1 / bitrate=10732 / ratetol=1.0 / qcomp=0.70 / qpmin=10 / qpmax=51 / qpstep=4 / cplxblur=20.0 / qblur=0.5 / vbv_maxrate=50000 / vbv_bufsize=50000 / ip_ratio=1.40 / aq=1:1.00 / nal_hrd=none
  25. Language                                 : English
  26. Default                                  : No
  27. Forced                                   : No

  28. Audio
  29. ID                                       : 2
  30. Format                                   : DTS
  31. Format/Info                              : Digital Theater Systems
  32. Codec ID                                 : A_DTS
  33. Duration                                 : 2 h 7 min
  34. Bit rate mode                            : Constant
  35. Bit rate                                 : 1 509 kb/s
  36. Channel(s)                               : 6 channels
  37. Channel layout                           : C L R Ls Rs LFE
  38. Sampling rate                            : 48.0 kHz
  39. Frame rate                               : 93.750 FPS (512 SPF)
  40. Bit depth                                : 24 bits
  41. Compression mode                         : Lossy
  42. Stream size                              : 1.34 GiB (12%)
  43. Language                                 : English
  44. Default                                  : No
  45. Forced                                   : No

  46. Text
  47. ID                                       : 3
  48. Format                                   : UTF-8
  49. Codec ID                                 : S_TEXT/UTF8
  50. Codec ID/Info                            : UTF-8 Plain Text
  51. Language                                 : English
  52. Default                                  : No
  53. Forced                                   : No

  54. Menu
  55. 00:00:00.000                             : en:Battle of Ca Lu
  56. 00:09:21.833                             : en:Distinguished Service
  57. 00:14:27.208                             : en:Embassy Siege
  58. 00:23:16.292                             : en:International Crisis
  59. 00:31:01.542                             : en:General Court-Martial
  60. 00:40:02.333                             : en:Weak Lawyer
  61. 00:49:24.708                             : en:Making a Case
  62. 00:56:47.000                             : en:Yemen Investigation
  63. 01:02:45.458                             : en:Career at Risk
  64. 01:11:50.167                             : en:Opening Arguments
  65. 01:21:39.208                             : en:Doctor Ahmar
  66. 01:27:59.125                             : en:Withholding Evidence
  67. 01:37:41.750                             : en:Childers' Testimony
  68. 01:45:06.500                             : en:Summation
  69. 01:54:21.417                             : en:Verdict
  70. 02:00:22.708                             : en:Ednd Credits
复制代码








                                       
                                       

                                       
                                       
                                       




回复

使用道具 举报

懒得打字嘛,点击右侧快捷回复 【右侧内容,后台自定义】
您需要登录后才可以回帖 登录 | 立即加入

本版积分规则

Archiver|小黑屋| 蓝光电影网 |网站地图

Copyright © 2021 Comsenz Inc. Powered by 蓝光电影网

蓝光电影网

本站内容由用户自主分享和转载自互联网,转载目的在于传递更多信息,并不代表本网赞同其观点和对其真实性负责。

如有侵权、违反国家法律政策行为,请联系我们,我们会第一时间及时清除和处理!

举报反馈邮箱:[email protected]

快速回复 返回顶部 返回列表