找回密码

蓝光电影网

查看: 8|回复: 0

[剧情] 投靠女与出走男 Kakekomi.2015.JAPANESE.1080p.BluRay.x264-WiKi 13.79GB

[复制链接]
蓝光币
519
发表于 2020-11-6 11:15:11 | 显示全部楼层 |阅读模式


◎译  名 投靠女与出走男/Kakekomi Onna to Kakedashi Otoko/逃婚女与见习男(台)
◎片  名 駆込み女と駆出し男
◎年  代 2015
◎产  地 日本
◎类  别 剧情 / 笑剧
◎语  言 日语
◎上映日期 2015-05-16(日本)
◎IMDb评分  7/10 from 363 users
◎IMDb链接  https://www.imdb.com/title/tt3989744/
◎豆瓣评分 8.2/10 from 13347 users
◎豆瓣链接 https://movie.douban.com/subject/25969201/
◎片  长 143分钟(日本)
◎导  演 原田真人 Masato Harada
◎编  剧 井上厦 Hisashi Inoue / 原田真人 Masato Harada
◎主  演 大泉洋 Y? ?izumi
       户田惠梨香 Erika Toda
       满岛光 Hikari Mitsushima
       内山理名 Rina Uchiyama
       阳月华 Hana Hizuki
       木村绿子 Midoriko Kimura
       木场胜己 Katsumi Kiba
       神野三铃 Misuzu Kanno
       武田真治 Shinji Takeda
       北村有起哉 Yukiya Kitamura
       桥本润 Jun Hashimoto
       山崎一 Hajime Yamazaki
       磨赤儿 Akaji Maro
       中村贺津雄 Katsuo Nakamura
       树木希林 Kirin Kiki
       堤真一 Shin'ichi Tsutsumi
       山崎努 Tsutomu Yamazaki
       高畑淳子 Atsuko Takahata
       松本若菜 Wakana Matsumoto
       宫本裕子 Yuko Miyamoto
       中村育二 Ikuji Nakamura
       高坂保奈美 Honami Takasaka
       山路和弘 Kazuhiro Yamaji
       松冈哲永 Tetsunaga Matsuoka
       绪方义博 Denden
       玄理 Hyunri
◎标  签 日本 | 历史 | 剧情 | 2015 | 女权 | 笑剧 | 恋爱 | 女性
◎简  介


  故事发生在19世纪中叶的日本德川幕府期间,位于镰仓的东庆寺获得幕府的支持,可以向饱受磨难婚姻熬煎的女性施以援手,帮助他们成功和夫家隔离关系。这一日,犯警贩子堀切屋三郎卫门(堤真一 饰)的小妾阿吟(满岛光 饰)以及被忘八丈夫(武田真治 饰)残暴剥削的铁匠阿茹(户田惠梨香 饰)结伴来到东庆寺,而且熟悉了寺脚下御用宿柏屋仆人源兵卫(树木希林 饰)的外甥信次郎(大泉洋 饰)。信次郎是一位见习医生,他操纵医术尝试着治疗阿茹的烧伤,同时希望记录下女性们的遭受写出传世剧本。有着分歧布景的女性们相继前来,她们配合站在了人生的岔路口上……
  
  本片以井上厦的小说《東慶寺花だより》为参考改编而成。
◎获奖情况
  第39届日本电影学院奖 ?(2016)
  最好男配角(提名) 大泉洋
  最好女配角(提名) 满岛光
  
  第10届亚洲电影大奖 ?(2016)
  最好美术指导(提名) 原田哲男
  最好外型设想(提名) 宫本雅惠
  
  第2届豆瓣电影年度榜单 ?(2015)
  评分最高的日本电影(提名)
  
  第6届豆瓣电影鑫像奖 ?(2016)
  鑫豆单元最好日本电影(提名)
  1. Video
  2. ID                                       : 1
  3. Format                                   : AVC
  4. Format/Info                              : Advanced Video Codec
  5. Format profile                           : [email protected]
  6. Format settings, CABAC                   : Yes
  7. Format settings, ReFrames                : 5 frames
  8. Codec ID                                 : V_MPEG4/ISO/AVC
  9. Duration                                 : 2h 24mn
  10. Bit rate                                 : 13.0 Mbps
  11. Width                                    : 1 920 pixels
  12. Height                                   : 802 pixels
  13. Display aspect ratio                     : 2.40:1
  14. Frame rate mode                          : Constant
  15. Frame rate                               : 23.976 fps
  16. Color space                              : YUV
  17. Chroma subsampling                       : 4:2:0
  18. Bit depth                                : 8 bits
  19. Scan type                                : Progressive
  20. Bits/(Pixel*Frame)                       : 0.352
  21. Stream size                              : 12.9 GiB (93%)
  22. Writing library                          : x264 core 142 r2431+42 c69a006 tMod [[email protected] X86_64]
  23. Encoding settings                        : cabac=1 / ref=5 / deblock=1:-3:-3 / analyse=0x3:0x133 / me=umh / subme=11 / psy=1 / fade_compensate=0.00 / psy_rd=1.05:0.05 / mixed_ref=1 / me_range=64 / chroma_me=1 / trellis=2 / 8x8dct=1 / cqm=0 / deadzone=21,11 / fast_pskip=0 / chroma_qp_offset=-3 / threads=12 / lookahead_threads=3 / sliced_threads=0 / nr=0 / decimate=0 / interlaced=0 / bluray_compat=0 / constrained_intra=0 / fgo=0 / bframes=10 / b_pyramid=2 / b_adapt=2 / b_bias=0 / direct=3 / weightb=1 / open_gop=0 / weightp=2 / keyint=250 / keyint_min=23 / scenecut=40 / intra_refresh=0 / rc_lookahead=120 / rc=2pass / mbtree=0 / bitrate=13000 / ratetol=1.0 / qcomp=0.70 / qpmin=0:0:0 / qpmax=69:69:69 / qpstep=4 / cplxblur=20.0 / qblur=0.5 / vbv_maxrate=50000 / vbv_bufsize=50000 / nal_hrd=none / filler=0 / ip_ratio=1.40 / pb_ratio=1.30 / aq=1:0.85 / aq-sensitivity=10.00 / aq-factor=1.00:1.00:1.00 / aq2=0 / aq3=0
  24. Language                                 : Japanese
  25. Default                                  : Yes
  26. Forced                                   : No
  27. Color range                              : Limited
  28. Matrix coefficients                      : BT.709
  29. Audio
  30. ID                                       : 2
  31. Format                                   : AC-3
  32. Format/Info                              : Audio Coding 3
  33. Mode extension                           : CM (complete main)
  34. Format settings, Endianness              : Big
  35. Codec ID                                 : A_AC3
  36. Duration                                 : 2h 24mn
  37. Bit rate mode                            : Constant
  38. Bit rate                                 : 640 Kbps
  39. Channel(s)                               : 6 channels
  40. Channel positions                        : Front: L C R, Side: L R, LFE
  41. Sampling rate                            : 48.0 KHz
  42. Compression mode                         : Lossy
  43. Stream size                              : 662 MiB (5%)
  44. Language                                 : Japanese
  45. Default                                  : Yes
  46. Forced                                   : No
  47. Text
  48. ID                                       : 3
  49. Format                                   : ASS
  50. Codec ID                                 : S_TEXT/ASS
  51. Codec ID/Info                            : Advanced Sub Station Alpha
  52. Compression mode                         : Lossless
  53. Title                                    : CHT
  54. Language                                 : Chinese
  55. Default                                  : No
  56. Forced                                   : No
  57. Menu
  58. 00:00:00.000                             : en:00:00:00.000
  59. 00:11:21.472                             : en:00:11:21.472
  60. 00:20:26.642                             : en:00:20:26.642
  61. 00:31:54.663                             : en:00:31:54.663
  62. 00:41:38.037                             : en:00:41:38.037
  63. 00:51:31.463                             : en:00:51:31.463
  64. 01:01:07.455                             : en:01:01:07.455
  65. 01:08:58.760                             : en:01:08:58.760
  66. 01:15:38.033                             : en:01:15:38.033
  67. 01:22:22.271                             : en:01:22:22.271
  68. 01:28:23.673                             : en:01:28:23.673
  69. 01:36:27.240                             : en:01:36:27.240
  70. 01:43:11.852                             : en:01:43:11.852
  71. 01:54:16.224                             : en:01:54:16.224
  72. 02:04:32.799                             : en:02:04:32.799
  73. 02:17:26.238                             : en:02:17:26.238
复制代码








                                       
                                       

                                       
                                       
                                       




回复

使用道具 举报

懒得打字嘛,点击右侧快捷回复 【右侧内容,后台自定义】
您需要登录后才可以回帖 登录 | 立即加入

本版积分规则

Archiver|小黑屋| 蓝光电影网 |网站地图

Copyright © 2021 Comsenz Inc. Powered by 蓝光电影网

蓝光电影网

本站内容由用户自主分享和转载自互联网,转载目的在于传递更多信息,并不代表本网赞同其观点和对其真实性负责。

如有侵权、违反国家法律政策行为,请联系我们,我们会第一时间及时清除和处理!

举报反馈邮箱:[email protected]

快速回复 返回顶部 返回列表