找回密码

蓝光电影网

查看: 8|回复: 0

[剧情] 哆啦A梦:大雄的宇宙英雄记 Doraemon.Nobita.and.the.Space.Heroes.2015.1080p.BluRay.x264-WiKi 6.66GB

[复制链接]
蓝光币
511
发表于 2020-11-6 10:57:18 | 显示全部楼层 |阅读模式


◎译  名 哆啦A梦:大雄的宇宙豪杰记/Doraemon - Il film: Nobita e gli eroi dello spazio/Doraemon The Space Hero/Doraemon The Super Star 2015/Doraemon: Nobita và nh?ng hi?p s? kh?ng gian/Doraemon: Nobita's Space Heroes/??????: ??????'? ????? ???? ?????? ?? ????? ?????/???????? ??? ??????????????????????/??? ????: ??? ?????~???? ????~
◎片  名 映画ドラえもん のび太の宇宙豪杰記
◎年  代 2015
◎产  地 日本
◎类  别 剧情 / 科幻
◎语  言 日语
◎上映日期 2015-03-07(日本)
◎IMDb评分  6.5/10 from 405 users
◎IMDb链接  https://www.imdb.com/title/tt4788602/
◎豆瓣评分 6.8/10 from 4942 users
◎豆瓣链接 https://movie.douban.com/subject/25928048/
◎片  长 101分钟
◎导  演 大杉宜弘 Oosugi Yoshihiro
◎编  剧 清水东 Higashi Shimizu / 藤子·F·不贰雄 F. Fujio Fujiko
◎主  演 水田山葵 Wasabi Mizuta
       大原惠美 Megumi Oohara
       嘉数由美 Yumi Kakazu
       木村昴 Subaru Kimura
       关智一 Tomokazu Seki
       三石琴乃 Kotono Mitsuishi
       竹内都子 Miyako Takeuchi
       井上麻里奈 Marina Inoue
       能登麻美子 Mamiko Noto
       清川元梦 Motomu Kiyokawa
       小伏伸之 Nobuyuki Kobushi
       大西健晴 Oonishi Takeharu
       鸟海胜美 Toriumi Katsumi
       北村谦次 Kenji Kitamura
       深田爱衣 Fukada Ai
       佐藤奏美 Kanami Satou
       天神林知美 Tomomi Tenjinbayashi
       岩田龙门 Ryuto Iwata
       田中裕二 Yuuji Tanaka
       观月亚理莎 Arisa Mizuki
       市村正亲 Masachika Ichimura
       陈美贞 Chen Meizhen
◎标  签 哆啦A梦 | 动画 | 日本 | 戏院版 | 2015 | 日本动画 | 童年 | 电影
◎简  介


  克日里,大雄(大原惠 配音)迷上了一部名为《银河防卫队》的电视剧,剧中豪杰们匹敌邪恶势力的勇敢形象在大雄的脑海里留下了深深的印记,希望自己有朝一日也可以如同这些豪杰般劝善扬善。
  
  某日,大雄来到小夫(关智一 配音)家,发现他居然弄来了剧中豪杰的戏服,还找来了摄影机,筹算同胖虎(木村昂 配音)、静香(嘉数由美 配音)一路拍摄属于他们自己的豪杰电视剧,但是,让他们没有想到的是,他们玩得不亦乐乎的气象,居然被一只名为艾伦(井上麻里奈 配音)的外星人一览无余,艾伦的所居住的星球遭到了宇宙海盗的侵犯,来到地球搬援军的他,将拯救母星的期望,拜托在了眼前这些恍如可以呼风唤雨的“豪杰”们身上。
  1. Video
  2. ID                                       : 1
  3. Format                                   : AVC
  4. Format/Info                              : Advanced Video Codec
  5. Format profile                           : [email protected]
  6. Format settings, CABAC                   : Yes
  7. Format settings, ReFrames                : 4 frames
  8. Codec ID                                 : V_MPEG4/ISO/AVC
  9. Duration                                 : 1h 40mn
  10. Bit rate                                 : 7 990 Kbps
  11. Width                                    : 1 920 pixels
  12. Height                                   : 1 080 pixels
  13. Display aspect ratio                     : 16:9
  14. Frame rate mode                          : Constant
  15. Frame rate                               : 23.976 fps
  16. Color space                              : YUV
  17. Chroma subsampling                       : 4:2:0
  18. Bit depth                                : 8 bits
  19. Scan type                                : Progressive
  20. Bits/(Pixel*Frame)                       : 0.161
  21. Stream size                              : 5.49 GiB (84%)
  22. Writing library                          : x264 core 129 r2245+704+36 8e61944 tMod+MixAQ [[email protected]:2:0 X86_64]
  23. Encoding settings                        : cabac=1 / ref=4 / deblock=1:-1:-1 / analyse=0x3:0x133 / me=umh / subme=11 / psy=1 / fade_compensate=0.00 / psy_rd=0.60:0.00 / mixed_ref=1 / me_range=64 / chroma_me=1 / trellis=2 / 8x8dct=1 / cqm=0 / deadzone=21,11 / fast_pskip=0 / chroma_qp_offset=-2 / threads=18 / lookahead_threads=3 / sliced_threads=0 / nr=0 / decimate=0 / interlaced=0 / bluray_compat=0 / constrained_intra=0 / fgo=0 / bframes=10 / b_pyramid=2 / b_adapt=2 / b_bias=0 / direct=3 / weightb=1 / open_gop=0 / weightp=2 / keyint=250 / keyint_min=23 / scenecut=40 / intra_refresh=0 / rc=2pass / mbtree=0 / bitrate=7990 / ratetol=1.0 / qcomp=0.70 / qpmin=0 / qpmax=69 / qpstep=4 / cplxblur=20.0 / qblur=0.5 / ip_ratio=1.40 / pb_ratio=1.30 / aq=3 / aq-strength=0.95 / aq-sensitivity=10.00 / aq-ifactor=1.00 / aq-pfactor=1.00 / aq-bfactor=1.00 / aq2=0
  24. Language                                 : Japanese
  25. Default                                  : Yes
  26. Forced                                   : No
  27. DURATION                                 : 01:40:38.032000000
  28. NUMBER_OF_FRAMES                         : 144768
  29. NUMBER_OF_BYTES                          : 6031412072
  30. _STATISTICS_WRITING_APP                  : mkvmerge v8.5.1 (\'Where you lead I will follow\') 64bit
  31. _STATISTICS_WRITING_DATE_UTC             : 2015-11-19 14:34:26
  32. _STATISTICS_TAGS                         : BPS DURATION NUMBER_OF_FRAMES NUMBER_OF_BYTES
  33. Audio #1
  34. ID                                       : 2
  35. Format                                   : AC-3
  36. Format/Info                              : Audio Coding 3
  37. Mode extension                           : CM (complete main)
  38. Format settings, Endianness              : Big
  39. Codec ID                                 : A_AC3
  40. Duration                                 : 1h 40mn
  41. Bit rate mode                            : Constant
  42. Bit rate                                 : 640 Kbps
  43. Channel(s)                               : 6 channels
  44. Channel positions                        : Front: L C R, Side: L R, LFE
  45. Sampling rate                            : 48.0 KHz
  46. Compression mode                         : Lossy
  47. Stream size                              : 461 MiB (7%)
  48. Language                                 : Japanese
  49. Default                                  : Yes
  50. Forced                                   : No
  51. Audio #2
  52. ID                                       : 3
  53. Format                                   : AC-3
  54. Format/Info                              : Audio Coding 3
  55. Mode extension                           : CM (complete main)
  56. Format settings, Endianness              : Big
  57. Codec ID                                 : A_AC3
  58. Duration                                 : 1h 40mn
  59. Bit rate mode                            : Constant
  60. Bit rate                                 : 448 Kbps
  61. Channel(s)                               : 6 channels
  62. Channel positions                        : Front: L C R, Side: L R, LFE
  63. Sampling rate                            : 48.0 KHz
  64. Compression mode                         : Lossy
  65. Stream size                              : 322 MiB (5%)
  66. Title                                    : Cantonese
  67. Language                                 : Chinese
  68. Default                                  : No
  69. Forced                                   : No
  70. Audio #3
  71. ID                                       : 4
  72. Format                                   : AC-3
  73. Format/Info                              : Audio Coding 3
  74. Mode extension                           : CM (complete main)
  75. Format settings, Endianness              : Big
  76. Codec ID                                 : A_AC3
  77. Duration                                 : 1h 40mn
  78. Bit rate mode                            : Constant
  79. Bit rate                                 : 256 Kbps
  80. Channel(s)                               : 2 channels
  81. Channel positions                        : Front: L R
  82. Sampling rate                            : 48.0 KHz
  83. Compression mode                         : Lossy
  84. Stream size                              : 184 MiB (3%)
  85. Title                                    : Mandarin
  86. Language                                 : Chinese
  87. Default                                  : No
  88. Forced                                   : No
  89. Text #1
  90. ID                                       : 5
  91. Format                                   : UTF-8
  92. Codec ID                                 : S_TEXT/UTF8
  93. Codec ID/Info                            : UTF-8 Plain Text
  94. Title                                    : Cantonese Simplified
  95. Language                                 : Chinese
  96. Default                                  : Yes
  97. Forced                                   : No
  98. Text #2
  99. ID                                       : 6
  100. Format                                   : UTF-8
  101. Codec ID                                 : S_TEXT/UTF8
  102. Codec ID/Info                            : UTF-8 Plain Text
  103. Title                                    : Cantonese Traditional
  104. Language                                 : Chinese
  105. Default                                  : No
  106. Forced                                   : No
  107. Text #3
  108. ID                                       : 7
  109. Format                                   : UTF-8
  110. Codec ID                                 : S_TEXT/UTF8
  111. Codec ID/Info                            : UTF-8 Plain Text
  112. Title                                    : Mandarin Simplified
  113. Language                                 : Chinese
  114. Default                                  : No
  115. Forced                                   : No
  116. Text #4
  117. ID                                       : 8
  118. Format                                   : UTF-8
  119. Codec ID                                 : S_TEXT/UTF8
  120. Codec ID/Info                            : UTF-8 Plain Text
  121. Title                                    : Mandarin Traditional
  122. Language                                 : Chinese
  123. Default                                  : No
  124. Forced                                   : No
  125. Menu
  126. 00:00:00.000                             : en:00:00:00.000
  127. 00:04:19.384                             : en:00:04:19.384
  128. 00:09:51.507                             : en:00:09:51.507
  129. 00:14:58.230                             : en:00:14:58.230
  130. 00:19:11.525                             : en:00:19:11.525
  131. 00:26:16.074                             : en:00:26:16.074
  132. 00:29:33.938                             : en:00:29:33.938
  133. 00:37:44.595                             : en:00:37:44.595
  134. 00:44:56.402                             : en:00:44:56.402
  135. 00:53:24.993                             : en:00:53:24.993
  136. 00:58:48.691                             : en:00:58:48.691
  137. 01:05:22.126                             : en:01:05:22.126
  138. 01:08:57.216                             : en:01:08:57.216
  139. 01:13:11.720                             : en:01:13:11.720
  140. 01:21:11.741                             : en:01:21:11.741
  141. 01:28:54.579                             : en:01:28:54.579
  142. 01:37:05.444                             : en:01:37:05.444
  143. 01:40:07.126                             : en:01:40:07.126
复制代码









                                       
                                       

                                       
                                       
                                       




回复

使用道具 举报

懒得打字嘛,点击右侧快捷回复 【右侧内容,后台自定义】
您需要登录后才可以回帖 登录 | 立即加入

本版积分规则

Archiver|小黑屋| 蓝光电影网 |网站地图

Copyright © 2021 Comsenz Inc. Powered by 蓝光电影网

蓝光电影网

本站内容由用户自主分享和转载自互联网,转载目的在于传递更多信息,并不代表本网赞同其观点和对其真实性负责。

如有侵权、违反国家法律政策行为,请联系我们,我们会第一时间及时清除和处理!

举报反馈邮箱:[email protected]

快速回复 返回顶部 返回列表