找回密码

蓝光电影网

查看: 8|回复: 0

[剧情] 积爱之人 The.Pearls.of.the.Stone.Man.2015.JAPANESE.1080p.BluRay.x264.DTS-WiKi 12.34GB

[复制链接]
蓝光币
515
发表于 2020-11-6 10:48:19 | 显示全部楼层 |阅读模式


◎译  名 积爱之人/The Pearls of the Stone Man/爱的诠释
◎片  名 愛を積むひと
◎年  代 2015
◎产  地 日本
◎类  别 剧情
◎语  言 日语
◎上映日期 2015-06-20(日本)
◎IMDb评分  5.1/10 from 53 users
◎IMDb链接  https://www.imdb.com/title/tt3786474/
◎豆瓣评分 7.4/10 from 690 users
◎豆瓣链接 https://movie.douban.com/subject/25903020/
◎片  长 125分钟
◎导  演 朝原雄三 Y?z? Asahara
◎编  剧 朝原雄三 Y?z? Asahara / 福田卓郎 Takuro Fukuda / 爱德华·穆尼·朱尼尔 Edward Mooney Jr.
◎主  演 佐藤浩市 K?ichi Sat?
       樋口可南子 Kanako Higuchi
       北川景子 Keiko Kitagawa
       野村周平 Shuhei Nomura
       杉咲花 Hana Sugisaki
       吉田羊 Y? Yoshida
       柄本明 Akira Emoto
       森崎博之 Hiroyuki Morisaki
       佐户井贤太 Kenta Satoi
       冈田义德 Yoshinori Okada
       西泽爱菜 Aina Nishizawa
◎标  签 日本 | 温情 | 家庭 | 2015 | 剧情 | 亲情 | 北海道 | 动人
◎简  介


  具有壮美风光的北海道,迎来了历尽沧桑的佳耦小林笃史(佐藤浩市 饰)和良子(樋口可南子 饰)。佳耦俩原本经营一家机械制造厂,但因经营不善而被迫关张。良子感遭到丈夫的失落,是以奉求笃史为他们西式气概的独栋修建石墙。某晚家中进入小偷,良子遭到冲撞后受伤。医生倡议她重视自己所患的扩大性心肌病,可是良子却对丈夫隐瞒下这个究竟,并与来帮助他们构筑石墙的青年杉本彻(野村周平 饰)及其女友纱英(杉咲花 饰)度过一段无忧无虑的梦幻时光。该来的总会到来,携手半生,总有诀此外时辰……
  
  本片按照美国作家Edward Mooney, Jr.2002年颁发的小说《The Pearls of the Stone Man》(日译:石を積むひと)改编。
◎获奖情况
  第40届报知映画赏 ?(2015)
  最好男配角 佐藤浩市
  最好女配角 吉田羊
  1. Video
  2. ID                                       : 1
  3. Format                                   : AVC
  4. Format/Info                              : Advanced Video Codec
  5. Format profile                           : [email protected]
  6. Format settings, CABAC                   : Yes
  7. Format settings, ReFrames                : 5 frames
  8. Codec ID                                 : V_MPEG4/ISO/AVC
  9. Duration                                 : 2h 5mn
  10. Bit rate                                 : 12.5 Mbps
  11. Width                                    : 1 920 pixels
  12. Height                                   : 804 pixels
  13. Display aspect ratio                     : 2.40:1
  14. Frame rate mode                          : Constant
  15. Frame rate                               : 23.976 fps
  16. Color space                              : YUV
  17. Chroma subsampling                       : 4:2:0
  18. Bit depth                                : 8 bits
  19. Scan type                                : Progressive
  20. Bits/(Pixel*Frame)                       : 0.338
  21. Stream size                              : 10.7 GiB (87%)
  22. Writing library                          : x264 core 142 r2431+42 c69a006 tMod [[email protected] X86_64]
  23. Encoding settings                        : cabac=1 / ref=5 / deblock=1:-3:-3 / analyse=0x3:0x133 / me=umh / subme=11 / psy=1 / fade_compensate=0.00 / psy_rd=1.05:0.05 / mixed_ref=1 / me_range=64 / chroma_me=1 / trellis=2 / 8x8dct=1 / cqm=0 / deadzone=21,11 / fast_pskip=0 / chroma_qp_offset=-3 / threads=12 / lookahead_threads=3 / sliced_threads=0 / nr=0 / decimate=0 / interlaced=0 / bluray_compat=0 / constrained_intra=0 / fgo=0 / bframes=10 / b_pyramid=2 / b_adapt=2 / b_bias=0 / direct=3 / weightb=1 / open_gop=0 / weightp=2 / keyint=250 / keyint_min=23 / scenecut=40 / intra_refresh=0 / rc_lookahead=100 / rc=2pass / mbtree=0 / bitrate=12500 / ratetol=1.0 / qcomp=0.70 / qpmin=0:0:0 / qpmax=69:69:69 / qpstep=4 / cplxblur=20.0 / qblur=0.5 / vbv_maxrate=50000 / vbv_bufsize=50000 / nal_hrd=none / filler=0 / ip_ratio=1.40 / pb_ratio=1.30 / aq=1:0.85 / aq-sensitivity=10.00 / aq-factor=1.00:1.00:1.00 / aq2=0 / aq3=0
  24. Language                                 : Japanese
  25. Default                                  : Yes
  26. Forced                                   : No
  27. Color range                              : Limited
  28. Matrix coefficients                      : BT.709
  29. Audio
  30. ID                                       : 2
  31. Format                                   : DTS
  32. Format/Info                              : Digital Theater Systems
  33. Mode                                     : 16
  34. Format settings, Endianness              : Big
  35. Codec ID                                 : A_DTS
  36. Duration                                 : 2h 5mn
  37. Bit rate mode                            : Constant
  38. Bit rate                                 : 1 509 Kbps
  39. Channel(s)                               : 6 channels
  40. Channel positions                        : Front: L C R, Side: L R, LFE
  41. Sampling rate                            : 48.0 KHz
  42. Bit depth                                : 16 bits
  43. Compression mode                         : Lossy
  44. Stream size                              : 1.32 GiB (11%)
  45. Language                                 : Japanese
  46. Default                                  : Yes
  47. Forced                                   : No
  48. Text
  49. ID                                       : 3
  50. Format                                   : ASS
  51. Codec ID                                 : S_TEXT/ASS
  52. Codec ID/Info                            : Advanced Sub Station Alpha
  53. Compression mode                         : Lossless
  54. Title                                    : CHT
  55. Language                                 : Chinese
  56. Default                                  : No
  57. Forced                                   : No
  58. Menu
  59. 00:00:00.000                             : en:00:00:00.000
  60. 00:10:15.824                             : en:00:10:15.824
  61. 00:21:48.349                             : en:00:21:48.349
  62. 00:32:35.954                             : en:00:32:35.954
  63. 00:41:38.121                             : en:00:41:38.121
  64. 00:50:51.882                             : en:00:50:51.882
  65. 01:00:26.957                             : en:01:00:26.957
  66. 01:11:19.192                             : en:01:11:19.192
  67. 01:18:52.603                             : en:01:18:52.603
  68. 01:28:07.115                             : en:01:28:07.115
  69. 01:37:18.082                             : en:01:37:18.082
  70. 01:46:44.231                             : en:01:46:44.231
  71. 01:55:21.623                             : en:01:55:21.623
  72. 02:01:39.292                             : en:02:01:39.292
复制代码









                                       
                                       

                                       
                                       
                                       




回复

使用道具 举报

懒得打字嘛,点击右侧快捷回复 【右侧内容,后台自定义】
您需要登录后才可以回帖 登录 | 立即加入

本版积分规则

Archiver|小黑屋| 蓝光电影网 |网站地图

Copyright © 2021 Comsenz Inc. Powered by 蓝光电影网

蓝光电影网

本站内容由用户自主分享和转载自互联网,转载目的在于传递更多信息,并不代表本网赞同其观点和对其真实性负责。

如有侵权、违反国家法律政策行为,请联系我们,我们会第一时间及时清除和处理!

举报反馈邮箱:[email protected]

快速回复 返回顶部 返回列表