找回密码

蓝光电影网

查看: 20|回复: 0

[剧情] 无法触碰的爱 No.Touching.At.All.2014.JAPANESE.1080p.BluRay.x264-WiKi 7.62GB

[复制链接]
蓝光币
515
发表于 2020-11-6 10:33:18 | 显示全部楼层 |阅读模式


◎译  名 没法触碰的爱/Doushitemo furetakunai/不管若何不想触碰
◎片  名 どうしても触れたくない
◎年  代 2014
◎产  地 日本
◎类  别 剧情 / 同性
◎语  言 日语
◎上映日期 2014-05-31(日本)
◎IMDb评分  6.6/10 from 559 users
◎IMDb链接  https://www.imdb.com/title/tt3902600/
◎豆瓣评分 6.6/10 from 6867 users
◎豆瓣链接 https://movie.douban.com/subject/25816274/
◎片  长 84分钟
◎导  演 天野千寻 Chihiro Amano
◎编  剧 高桥奈津子 Natsuko Takahashi
◎主  演 米原幸佑 K?suke Yonehara
       谷口贤志 Masashi Taniguchi
       富田翔 Shou Tomita
       松田祥一 Sh?ichi Matsuda
       三户裕也 Yuya Mito
       是近敦之 Atsushi Korechika
       入江崇史 Irie Takashi
       石井あみ Ami Ishii
       寿里
◎标  签 日本 | 同性 | BL | 漫画改编 | 耽美 | 恋爱 | 同道 | 2014
◎简  介


  嶋俊亚纪(米原幸佑 饰)是一位同性恋者,有着非常昏暗的曩昔。他的性取向在已经工作过的公司里遭到了曝光,是以遭到了同事和下属的排挤和鄙夷,终极丢掉了工作。今后今后,他非常谨慎的隐藏着自己的至心,惧怕畴前遭受的一切再度上演。
  
  好不轻易找到了一份新的工作,亚纪立誓这一次绝对不会再搞砸了。去新公司上班的第一天,亚纪就在电梯里碰到了一个喝得醉醺醺的希奇的汉子,而这个汉子正是他的下属外川阳介(谷口贤志 饰)。虽然碰头的第一印象并欠好,但在以后的工作和合作中,亚纪发现阳介实在是一个很是有担任负责人的汉子,奇妙的电波相互吸引这两人,致使他们终极到达了伦理的鸿沟。
  1. Video
  2. ID                                       : 1
  3. Format                                   : AVC
  4. Format/Info                              : Advanced Video Codec
  5. Format profile                           : [email protected]
  6. Format settings, CABAC                   : Yes
  7. Format settings, ReFrames                : 4 frames
  8. Codec ID                                 : V_MPEG4/ISO/AVC
  9. Duration                                 : 1h 24mn
  10. Bit rate                                 : 12.1 Mbps
  11. Width                                    : 1 920 pixels
  12. Height                                   : 1 036 pixels
  13. Display aspect ratio                     : 1.85:1
  14. Frame rate mode                          : Constant
  15. Frame rate                               : 23.976 fps
  16. Color space                              : YUV
  17. Chroma subsampling                       : 4:2:0
  18. Bit depth                                : 8 bits
  19. Scan type                                : Progressive
  20. Bits/(Pixel*Frame)                       : 0.254
  21. Stream size                              : 6.98 GiB (93%)
  22. Writing library                          : x264 core 129 r2245+704+36 8e61944 tMod+MixAQ [[email protected]:2:0 X86_64]
  23. Encoding settings                        : cabac=1 / ref=4 / deblock=1:-3:-3 / analyse=0x3:0x133 / me=umh / subme=11 / psy=1 / fade_compensate=0.00 / psy_rd=1.05:0.10 / mixed_ref=1 / me_range=64 / chroma_me=1 / trellis=2 / 8x8dct=1 / cqm=0 / deadzone=21,11 / fast_pskip=0 / chroma_qp_offset=-3 / threads=18 / lookahead_threads=3 / sliced_threads=0 / nr=0 / decimate=0 / interlaced=0 / bluray_compat=0 / constrained_intra=0 / fgo=0 / bframes=10 / b_pyramid=2 / b_adapt=2 / b_bias=0 / direct=3 / weightb=1 / open_gop=0 / weightp=2 / keyint=250 / keyint_min=23 / scenecut=40 / intra_refresh=0 / rc=2pass / mbtree=0 / bitrate=12092 / ratetol=1.0 / qcomp=0.70 / qpmin=0 / qpmax=69 / qpstep=4 / cplxblur=20.0 / qblur=0.5 / ip_ratio=1.40 / pb_ratio=1.30 / aq=1 / aq-strength=0.95 / aq-sensitivity=10.00 / aq-ifactor=1.00 / aq-pfactor=1.00 / aq-bfactor=1.00 / aq2=0
  24. Language                                 : Japanese
  25. Default                                  : Yes
  26. Forced                                   : No
  27. Color range                              : Limited
  28. Matrix coefficients                      : BT.709
  29. DURATION                                 : 01:24:13.549000000
  30. NUMBER_OF_FRAMES                         : 121164
  31. NUMBER_OF_BYTES                          : 7641577886
  32. _STATISTICS_WRITING_APP                  : mkvmerge v8.4.0 (\'A better way to fly\') 64bit
  33. _STATISTICS_WRITING_DATE_UTC             : 2015-10-31 06:19:58
  34. _STATISTICS_TAGS                         : BPS DURATION NUMBER_OF_FRAMES NUMBER_OF_BYTES
  35. Audio
  36. ID                                       : 2
  37. Format                                   : AC-3
  38. Format/Info                              : Audio Coding 3
  39. Mode extension                           : CM (complete main)
  40. Format settings, Endianness              : Big
  41. Codec ID                                 : A_AC3
  42. Duration                                 : 1h 24mn
  43. Bit rate mode                            : Constant
  44. Bit rate                                 : 640 Kbps
  45. Channel(s)                               : 2 channels
  46. Channel positions                        : Front: L R
  47. Sampling rate                            : 48.0 KHz
  48. Compression mode                         : Lossy
  49. Stream size                              : 386 MiB (5%)
  50. Language                                 : Japanese
  51. Default                                  : Yes
  52. Forced                                   : No
  53. Text #1
  54. ID                                       : 3
  55. Format                                   : ASS
  56. Codec ID                                 : S_TEXT/ASS
  57. Codec ID/Info                            : Advanced Sub Station Alpha
  58. Compression mode                         : Lossless
  59. Title                                    : Simplified
  60. Language                                 : Chinese
  61. Default                                  : Yes
  62. Forced                                   : No
  63. Text #2
  64. ID                                       : 4
  65. Format                                   : ASS
  66. Codec ID                                 : S_TEXT/ASS
  67. Codec ID/Info                            : Advanced Sub Station Alpha
  68. Compression mode                         : Lossless
  69. Title                                    : Traditional
  70. Language                                 : Chinese
  71. Default                                  : No
  72. Forced                                   : No
  73. Menu
  74. 00:00:00.000                             : en:00:00:00.000
  75. 00:01:23.082                             : en:00:01:23.082
  76. 00:11:47.373                             : en:00:11:47.373
  77. 00:19:40.679                             : en:00:19:40.679
  78. 00:30:06.304                             : en:00:30:06.304
  79. 00:38:25.803                             : en:00:38:25.803
  80. 00:52:58.508                             : en:00:52:58.508
  81. 01:03:17.794                             : en:01:03:17.794
  82. 01:09:26.495                             : en:01:09:26.495
  83. 01:21:45.901                             : en:01:21:45.901
复制代码









                                       
                                       

                                       
                                       
                                       




回复

使用道具 举报

懒得打字嘛,点击右侧快捷回复 【右侧内容,后台自定义】
您需要登录后才可以回帖 登录 | 立即加入

本版积分规则

Archiver|小黑屋| 蓝光电影网 |网站地图

Copyright © 2021 Comsenz Inc. Powered by 蓝光电影网

蓝光电影网

本站内容由用户自主分享和转载自互联网,转载目的在于传递更多信息,并不代表本网赞同其观点和对其真实性负责。

如有侵权、违反国家法律政策行为,请联系我们,我们会第一时间及时清除和处理!

举报反馈邮箱:[email protected]

快速回复 返回顶部 返回列表