找回密码

蓝光电影网

查看: 17|回复: 0

[剧情] 图书馆战争:记忆之书 The.Library.Wars.Book.of.Memories.2015.JAPANESE.1080p.BluRay.x264-WiKi 8.94GB

[复制链接]
蓝光币
515
发表于 2020-11-6 10:30:12 | 显示全部楼层 |阅读模式


◎译  名 图书馆战争:记忆之书/The Library Wars: Book of Memories
◎片  名 図書館戦争 BOOK OF MEMORIES
◎年  代 2015
◎产  地 日本
◎类  别 剧情 / 行动 / 科幻
◎语  言 日语
◎上映日期 2015-10-05(日本)
◎IMDb评分  6.2/10 from 61 users
◎IMDb链接  https://www.imdb.com/title/tt4725904/
◎豆瓣评分 7.5/10 from 4535 users
◎豆瓣链接 https://movie.douban.com/subject/26413839/
◎片  长 100分钟
◎导  演 佐藤信介 Shinsuke Sato
◎编  剧 有川浩 Hiro Arikawa / 野木亚纪子 Akiko Nogi
◎主  演 冈田准一 Junichi Okada
       荣仓奈奈 Nana Eikura
       田中圭 Kei Tanaka
       福士苍汰 S?ta Fukushi
       土屋太凤 Tao Tsuchiya
       中村苍 Aoi Nakamura
       西田尚美 Naomi Nishida
       桥本润 Jun Hashimoto
       相岛一之 Kazuyuki Aijima
       华夏丈雄 Takeo Nakahara
       相筑彰子 Akiko Aitsuko
       松坂桃李 T?ri Matsuzaka
       栗山千明 Chiaki Kuriyama
       石坂浩二 K?ji Ishizaka
◎标  签 日本 | 2015 | 漫画改编 | 剧情 | 科幻 | 行动 | 温情 | 长大
◎简  介


  履历了严苛的考验,笠原郁(荣仓奈奈 饰)逐步长大为一位优异的图书队特遣队队员。而在小田原图书馆保卫战以后,她似乎终究发现,多年来始终念念不忘的王子殿下正是那位经常摆着一张臭脸的教官堂上笃(冈田准一 饰)。某天,郁的怙恃意外来访,她手忙脚乱,由于她始终未将自己实在的工作告诉他们。因病失聪的女孩中泽毬江(土屋太凤 饰)多年来一向暗恋年老哥一样的小牧干久(田中圭 饰),可谁知小牧被良化队控告向残疾人传布了有害身心健康的书籍而遭到被捕。另一方面,名叫朝比奈修二(中村苍 饰)的博物馆研讨员接近柴崎麻子(栗山千明 饰),他和善的笑脸背后还有诡计。手塚光(福士苍汰 饰)持续不断接到奥秘电话,来电者把握着图书队未来的命运……
  
  本片根占有川浩的原作改编。
  1. Video
  2. ID                                       : 1
  3. Format                                   : AVC
  4. Format/Info                              : Advanced Video Codec
  5. Format profile                           : [email protected]
  6. Format settings, CABAC                   : Yes
  7. Format settings, ReFrames                : 4 frames
  8. Codec ID                                 : V_MPEG4/ISO/AVC
  9. Duration                                 : 1h 40mn
  10. Bit rate                                 : 12.0 Mbps
  11. Width                                    : 1 920 pixels
  12. Height                                   : 1 080 pixels
  13. Display aspect ratio                     : 16:9
  14. Frame rate mode                          : Constant
  15. Frame rate                               : 23.976 fps
  16. Color space                              : YUV
  17. Chroma subsampling                       : 4:2:0
  18. Bit depth                                : 8 bits
  19. Scan type                                : Progressive
  20. Bits/(Pixel*Frame)                       : 0.241
  21. Stream size                              : 8.21 GiB (93%)
  22. Writing library                          : x264 core 124 r2197+666+28 3970b70 tMod+MixAQ [[email protected]:2:0 X86]
  23. Encoding settings                        : cabac=1 / ref=4 / deblock=1:-3:-3 / analyse=0x3:0x133 / me=umh / subme=11 / psy=1 / fade_compensate=0.00 / psy_rd=1.05:0.10 / mixed_ref=1 / me_range=64 / chroma_me=1 / trellis=2 / 8x8dct=1 / cqm=0 / deadzone=21,11 / fast_pskip=0 / chroma_qp_offset=-3 / threads=18 / sliced_threads=0 / nr=0 / decimate=0 / interlaced=0 / bluray_compat=0 / constrained_intra=0 / fgo=0 / bframes=10 / b_pyramid=2 / b_adapt=2 / b_bias=0 / direct=3 / weightb=1 / open_gop=0 / weightp=2 / keyint=250 / keyint_min=23 / scenecut=40 / intra_refresh=0 / rc_lookahead=80 / rc=2pass / mbtree=1 / bitrate=12000 / ratetol=1.0 / qcomp=0.70 / qpmin=0 / qpmax=69 / qpstep=4 / cplxblur=20.0 / qblur=0.5 / ip_ratio=1.40 / aq=3 / aq-strength=0.85 / aq-sensitivity=10.00 / aq-ifactor=1.00 / aq-pfactor=1.00 / aq-bfactor=1.00 / aq2=0
  24. Language                                 : Japanese
  25. Default                                  : Yes
  26. Forced                                   : No
  27. DURATION                                 : 01:40:08.002000000
  28. NUMBER_OF_FRAMES                         : 144048
  29. NUMBER_OF_BYTES                          : 8993184664
  30. _STATISTICS_WRITING_APP                  : mkvmerge v8.4.0 (\'A better way to fly\') 64bit
  31. _STATISTICS_WRITING_DATE_UTC             : 2015-10-21 14:55:07
  32. _STATISTICS_TAGS                         : BPS DURATION NUMBER_OF_FRAMES NUMBER_OF_BYTES
  33. Audio
  34. ID                                       : 2
  35. Format                                   : AC-3
  36. Format/Info                              : Audio Coding 3
  37. Mode extension                           : CM (complete main)
  38. Format settings, Endianness              : Big
  39. Codec ID                                 : A_AC3
  40. Duration                                 : 1h 40mn
  41. Bit rate mode                            : Constant
  42. Bit rate                                 : 640 Kbps
  43. Channel(s)                               : 2 channels
  44. Channel positions                        : Front: L R
  45. Sampling rate                            : 48.0 KHz
  46. Compression mode                         : Lossy
  47. Stream size                              : 458 MiB (5%)
  48. Language                                 : Japanese
  49. Default                                  : Yes
  50. Forced                                   : No
  51. Text #1
  52. ID                                       : 3
  53. Format                                   : ASS
  54. Codec ID                                 : S_TEXT/ASS
  55. Codec ID/Info                            : Advanced Sub Station Alpha
  56. Compression mode                         : Lossless
  57. Title                                    : Simplified
  58. Language                                 : Chinese
  59. Default                                  : Yes
  60. Forced                                   : No
  61. Text #2
  62. ID                                       : 4
  63. Format                                   : ASS
  64. Codec ID                                 : S_TEXT/ASS
  65. Codec ID/Info                            : Advanced Sub Station Alpha
  66. Compression mode                         : Lossless
  67. Title                                    : Traditional
  68. Language                                 : Chinese
  69. Default                                  : No
  70. Forced                                   : No
  71. Menu
  72. 00:00:00.000                             : en:00:00:00.000
  73. 00:06:55.715                             : en:00:06:55.715
  74. 00:19:49.655                             : en:00:19:49.655
  75. 00:27:38.123                             : en:00:27:38.123
  76. 00:36:16.440                             : en:00:36:16.440
  77. 00:42:17.968                             : en:00:42:17.968
  78. 00:52:18.768                             : en:00:52:18.768
  79. 01:00:51.247                             : en:01:00:51.247
  80. 01:06:08.564                             : en:01:06:08.564
  81. 01:09:51.353                             : en:01:09:51.353
  82. 01:17:32.114                             : en:01:17:32.114
  83. 01:24:05.707                             : en:01:24:05.707
  84. 01:29:29.630                             : en:01:29:29.630
  85. 01:37:38.586                             : en:01:37:38.586
复制代码








                                       
                                       

                                       
                                       
                                       




回复

使用道具 举报

懒得打字嘛,点击右侧快捷回复 【右侧内容,后台自定义】
您需要登录后才可以回帖 登录 | 立即加入

本版积分规则

Archiver|小黑屋| 蓝光电影网 |网站地图

Copyright © 2021 Comsenz Inc. Powered by 蓝光电影网

蓝光电影网

本站内容由用户自主分享和转载自互联网,转载目的在于传递更多信息,并不代表本网赞同其观点和对其真实性负责。

如有侵权、违反国家法律政策行为,请联系我们,我们会第一时间及时清除和处理!

举报反馈邮箱:[email protected]

快速回复 返回顶部 返回列表