找回密码

蓝光电影网

查看: 9|回复: 0

[剧情] 乳牙/谢谢你爱过我 Babyteeth.2019.1080p.BluRay.x264-iFT 12.35GB

[复制链接]
蓝光币
515
发表于 2020-11-6 08:59:06 | 显示全部楼层 |阅读模式


◎译  名 乳牙/感谢你爱过我(台)
◎片  名 Babyteeth
◎年  代 2019
◎产  地 澳大利亚
◎类  别 剧情 / 笑剧
◎语  言 英语
◎上映日期 2019-09-04(威尼斯电影节) / 2020-06-19(美国)
◎IMDb评分  7.1/10 from 5835 users
◎IMDb链接  https://www.imdb.com/title/tt8399664/
◎豆瓣评分 7.1/10 from 3613 users
◎豆瓣链接 https://movie.douban.com/subject/30210689/
◎片  长 120分钟
◎导  演 香农·墨菲 Shannon Murphy
◎编  剧 丽塔·卡内贾斯 Rita Kalnejais
◎主  演 本·门德尔森 Ben Mendelsohn
       伊莱扎·斯坎伦 Eliza Scanlen
       埃茜·戴维斯 Essie Davis
       米歇尔·洛特斯 Michelle Lotters
       托比·华莱士 Toby Wallace
       Sora Wakaki
       蕾妮·比尔 Renee Billing
       扎克·格里奇 Zack Grech
       乔治娜·西梅斯 Georgina Symes
       艾米丽·巴克雷 Emily Barclay
       尤金·吉尔福德 Eugene Gilfedder
       Edward Lau
       查尔斯·格朗斯 Charles Grounds
       杰克·雅布斯利 Jack Yabsley
       安德里亚·德梅特里亚德斯 Andrea Demetriades
       贾斯汀·史姑娘 Justin Smith
       普里西拉·道伊西 Priscilla Doueihy
◎标  签 澳大利亚 | 青春 | 家庭 | 剧情 | 恋爱 | 2019 | 文艺 | 人性
◎简  介


  一对夫妻发现沉痾的青春期女儿米拉爱上了一个毒贩,二人的关系成为了夫妻俩的噩梦。而接近灭亡的米拉却对生活发生了新的渴望,传统的道德看法也被抛到脑后。米拉向她身旁的每小我展现了若何一无一切地生活。这对一个家庭来说,原本能够是一场灾难,但终极却让他们在生活的紊乱中找到了安静。
◎获奖情况
  第76届威尼斯电影节 ?(2019)
  主比赛单元金狮奖(提名) 香农·墨菲
  马塞洛·马斯托依安尼奖(新锐演员奖) 托比·华莱士
  
  第3届平遥国际电影展 ?(2019)
  首映单元最受接待影片 香农·墨菲
  1. Video
  2. ID                                       : 1
  3. Format                                   : AVC
  4. Format/Info                              : Advanced Video Codec
  5. Format profile                           : [email protected]
  6. Format settings                          : CABAC / 4 Ref Frames
  7. Format settings, CABAC                   : Yes
  8. Format settings, Reference frames        : 4 frames
  9. Codec ID                                 : V_MPEG4/ISO/AVC
  10. Duration                                 : 1 h 57 min
  11. Bit rate                                 : 14.0 Mb/s
  12. Width                                    : 1 800 pixels
  13. Height                                   : 1 080 pixels
  14. Display aspect ratio                     : 5:3
  15. Frame rate mode                          : Constant
  16. Frame rate                               : 24.000 FPS
  17. Color space                              : YUV
  18. Chroma subsampling                       : 4:2:0
  19. Bit depth                                : 8 bits
  20. Scan type                                : Progressive
  21. Bits/(Pixel*Frame)                       : 0.300
  22. Stream size                              : 11.5 GiB (93%)
  23. Writing library                          : x264 core 161 r3018+53 ~ Encoded by Mocunaman in Portugal
  24. Encoding settings                        : cabac=1 / ref=4 / deblock=1:-3:-3 / analyse=0x3:0x113 / me=umh / subme=11 / psy=1 / fade_compensate=0.00 / psy_rd=1.00:0.00 / mixed_ref=1 / me_range=32 / chroma_me=1 / trellis=2 / 8x8dct=1 / cqm=0 / deadzone=21,11 / fast_pskip=0 / chroma_qp_offset=-2 / threads=34 / lookahead_threads=5 / sliced_threads=0 / nr=0 / decimate=0 / interlaced=0 / bluray_compat=0 / constrained_intra=0 / fgo=0 / bframes=8 / b_pyramid=2 / b_adapt=2 / b_bias=0 / direct=3 / weightb=1 / open_gop=0 / weightp=2 / keyint=250 / keyint_min=24 / scenecut=40 / intra_refresh=0 / rc_lookahead=60 / rc=crf / mbtree=0 / crf=17.5000 / qcomp=0.60 / qpmin=0:0:0 / qpmax=69:69:69 / qpstep=4 / vbv_maxrate=62500 / vbv_bufsize=78125 / crf_max=0.0 / nal_hrd=none / filler=0 / ip_ratio=1.30 / pb_ratio=1.20 / aq=3:0.80 / aq-sensitivity=10.00 / aq-factor=1.00:1.00:1.00 / aq2=0 / aq3=0 / zones=28104,29976,crf=17/31008,36666,crf=17/66618,87186,crf=16.5/105834,109626,crf=17/119442,124516,crf=17/126508,127809,crf=17/135873,148185,crf=17
  25. Language                                 : English
  26. Default                                  : Yes
  27. Forced                                   : No
  28. Color range                              : Limited
  29. Color primaries                          : BT.709
  30. Transfer characteristics                 : BT.709
  31. Matrix coefficients                      : BT.709
  32. Audio
  33. ID                                       : 2
  34. Format                                   : E-AC-3
  35. Format/Info                              : Enhanced AC-3
  36. Commercial name                          : Dolby Digital Plus
  37. Codec ID                                 : A_EAC3
  38. Duration                                 : 1 h 57 min
  39. Bit rate mode                            : Constant
  40. Bit rate                                 : 1 024 kb/s
  41. Channel(s)                               : 6 channels
  42. Channel layout                           : L R C LFE Ls Rs
  43. Sampling rate                            : 48.0 kHz
  44. Frame rate                               : 31.250 FPS (1536 SPF)
  45. Compression mode                         : Lossy
  46. Stream size                              : 862 MiB (7%)
  47. Title                                    : E-AC3 DD+5.1 1024kbs
  48. Language                                 : English
  49. Service kind                             : Complete Main
  50. Default                                  : Yes
  51. Forced                                   : No
  52. Text #1
  53. ID                                       : 3
  54. Format                                   : UTF-8
  55. Codec ID                                 : S_TEXT/UTF8
  56. Codec ID/Info                            : UTF-8 Plain Text
  57. Duration                                 : 1 h 50 min
  58. Bit rate                                 : 38 b/s
  59. Count of elements                        : 1182
  60. Stream size                              : 31.5 KiB (0%)
  61. Title                                    : Full .srt
  62. Language                                 : English
  63. Default                                  : No
  64. Forced                                   : No
  65. Text #2
  66. ID                                       : 4
  67. Format                                   : UTF-8
  68. Codec ID                                 : S_TEXT/UTF8
  69. Codec ID/Info                            : UTF-8 Plain Text
  70. Duration                                 : 1 h 51 min
  71. Bit rate                                 : 50 b/s
  72. Count of elements                        : 1494
  73. Stream size                              : 41.3 KiB (0%)
  74. Title                                    : SDH .srt
  75. Language                                 : English
  76. Default                                  : No
  77. Forced                                   : No
  78. Menu
  79. 00:00:00.000                             : en:1. Opening Credits
  80. 00:09:29.291                             : en:2. When Milla Brought Moses Home
  81. 00:17:54.500                             : en:3. Gidon\'s School of Music
  82. 00:29:59.541                             : en:4. Breakthrough
  83. 00:38:33.083                             : en:5. Something In You Has Changed
  84. 00:45:43.291                             : en:6. F*ck This
  85. 01:00:33.750                             : en:7. It Didn\'t Feel Like a Love Story That Day
  86. 01:06:29.500                             : en:8. You Alright?
  87. 01:13:28.875                             : en:9. Sleeptalking
  88. 01:26:28.250                             : en:10. Things Changed
  89. 01:34:21.166                             : en:11. Love
  90. 01:52:18.500                             : en:12. End Credits
复制代码






                                       
                                       

                                       
                                       
                                       




回复

使用道具 举报

懒得打字嘛,点击右侧快捷回复 【右侧内容,后台自定义】
您需要登录后才可以回帖 登录 | 立即加入

本版积分规则

Archiver|小黑屋| 蓝光电影网 |网站地图

Copyright © 2021 Comsenz Inc. Powered by 蓝光电影网

蓝光电影网

本站内容由用户自主分享和转载自互联网,转载目的在于传递更多信息,并不代表本网赞同其观点和对其真实性负责。

如有侵权、违反国家法律政策行为,请联系我们,我们会第一时间及时清除和处理!

举报反馈邮箱:[email protected]

快速回复 返回顶部 返回列表