找回密码

蓝光电影网

查看: 10|回复: 0

[剧情] 兄弟 Brotherhood.1986.CHINESE.1080p.BluRay.x264.FLAC.2.0-LHD 7.96GB

[复制链接]
蓝光币
515
发表于 2020-11-5 23:10:17 | 显示全部楼层 |阅读模式


◎译  名 Brotherhood/枭城蹀血
◎片  名 兄弟
◎年  代 1986
◎产  地 中国香港
◎类  别 剧情 / 行动
◎语  言 粤语
◎上映日期 1986-11-22
◎IMDb评分  6.3/10 from 23 users
◎IMDb链接  https://www.imdb.com/title/tt0092251/
◎豆瓣评分 6.4/10 from 219 users
◎豆瓣链接 https://movie.douban.com/subject/1297361/
◎片  长 Portugal: 92 分钟
◎导  演 冼杞然 Stephen Shin
◎编  剧 冼杞然 Stephen Shin / 叶广俭 Kwong Kim Yip / 冯瑞熊 James Fung
◎主  演 李修贤 Danny Lee
       万梓良 Alex Man
       林伟 Vincent Lam
       成奎安 Fui-On Shing
       谷峰 Feng Ku
◎标  签 李修贤 | 香港 | 万梓良 | 香港电影 | 警匪 | 冼杞然 | 犯罪 | 1986
◎简  介


  剧情报告觉雷和李强原本皆为友谊甚好的差人,李因遭下属无故指责而告退。一伙强盗蒙面掠夺金铺,雷居然发现其中有李强。雷为庇护强而供给假证词,雷大学结业前任高级督察的弟弟文有所思疑。强等再次掠夺时,雷黑暗跟踪,文也在后监视。众匪思疑强通同雷出售兄弟,因而对他追杀;警方则思疑雷和强盗暗合……
◎获奖情况
  第24届台北金马影展 ?(1987)
  金马奖最好男配角(提名) 万梓良
  
  第6届香港电影金像奖 ?(1987)
  最好电影(提名)
  最好导演(提名) 冼杞然
  最好男配角(提名) 李修贤
  1. Video
  2. ID                                       : 1
  3. Format                                   : AVC
  4. Format/Info                              : Advanced Video Codec
  5. Format profile                           : [email protected]
  6. Format settings                          : CABAC / 9 Ref Frames
  7. Format settings, CABAC                   : Yes
  8. Format settings, Reference frames        : 9 frames
  9. Codec ID                                 : V_MPEG4/ISO/AVC
  10. Duration                                 : 1 h 24 min
  11. Bit rate                                 : 13.0 Mb/s
  12. Width                                    : 1 920 pixels
  13. Height                                   : 1 036 pixels
  14. Display aspect ratio                     : 1.85:1
  15. Frame rate mode                          : Constant
  16. Frame rate                               : 24.000 FPS
  17. Color space                              : YUV
  18. Chroma subsampling                       : 4:2:0
  19. Bit depth                                : 8 bits
  20. Scan type                                : Progressive
  21. Bits/(Pixel*Frame)                       : 0.272
  22. Stream size                              : 7.66 GiB (96%)
  23. Writing library                          : x264 core 142 r2431+42 c69a006 tMod [[email protected]:2:0 X86_64]
  24. Encoding settings                        : cabac=1 / ref=9 / deblock=1:-3:-3 / analyse=0x3:0x133 / me=umh / subme=11 / psy=0 / mixed_ref=1 / me_range=32 / chroma_me=1 / trellis=2 / 8x8dct=1 / cqm=0 / deadzone=21,11 / fast_pskip=0 / chroma_qp_offset=0 / threads=9 / lookahead_threads=2 / sliced_threads=0 / nr=0 / decimate=0 / interlaced=0 / bluray_compat=0 / constrained_intra=0 / fgo=0 / bframes=10 / b_pyramid=2 / b_adapt=2 / b_bias=0 / direct=3 / weightb=1 / open_gop=0 / weightp=2 / keyint=500 / keyint_min=24 / scenecut=40 / intra_refresh=0 / rc=2pass / mbtree=0 / bitrate=13000 / ratetol=1.0 / qcomp=0.60 / qpmin=0:0:0 / qpmax=69:69:69 / qpstep=4 / cplxblur=20.0 / qblur=0.5 / ip_ratio=1.40 / pb_ratio=1.30 / aq=3:0.75 / aq-sensitivity=10.00 / aq-factor=1.00:1.00:1.00 / aq2=0 / aq3=0
  25. Language                                 : Chinese
  26. Default                                  : Yes
  27. Forced                                   : No
  28. Audio
  29. ID                                       : 2
  30. Format                                   : FLAC
  31. Format/Info                              : Free Lossless Audio Codec
  32. Codec ID                                 : A_FLAC
  33. Duration                                 : 1 h 24 min
  34. Bit rate mode                            : Variable
  35. Bit rate                                 : 475 kb/s
  36. Channel(s)                               : 2 channels
  37. Channel layout                           : L R
  38. Sampling rate                            : 48.0 kHz
  39. Frame rate                               : 11.719 FPS (4096 SPF)
  40. Bit depth                                : 16 bits
  41. Compression mode                         : Lossless
  42. Stream size                              : 286 MiB (4%)
  43. Title                                    : Cantonese
  44. Writing library                          : libFLAC 1.2.1 (UTC 2007-09-17)
  45. Language                                 : Chinese
  46. Default                                  : No
  47. Forced                                   : No
  48. Text #1
  49. ID                                       : 3
  50. Format                                   : UTF-8
  51. Codec ID                                 : S_TEXT/UTF8
  52. Codec ID/Info                            : UTF-8 Plain Text
  53. Duration                                 : 1 h 20 min
  54. Bit rate                                 : 40 b/s
  55. Count of elements                        : 1033
  56. Stream size                              : 24.1 KiB (0%)
  57. Title                                    : SRT
  58. Language                                 : English
  59. Default                                  : Yes
  60. Forced                                   : No
  61. Text #2
  62. ID                                       : 4
  63. Format                                   : PGS
  64. Muxing mode                              : zlib
  65. Codec ID                                 : S_HDMV/PGS
  66. Codec ID/Info                            : Picture based subtitle format used on BDs/HD-DVDs
  67. Duration                                 : 1 h 20 min
  68. Bit rate                                 : 29.7 kb/s
  69. Count of elements                        : 1699
  70. Stream size                              : 17.2 MiB (0%)
  71. Title                                    : CHT
  72. Language                                 : Chinese
  73. Default                                  : No
  74. Forced                                   : No
  75. Text #3
  76. ID                                       : 5
  77. Format                                   : PGS
  78. Muxing mode                              : zlib
  79. Codec ID                                 : S_HDMV/PGS
  80. Codec ID/Info                            : Picture based subtitle format used on BDs/HD-DVDs
  81. Duration                                 : 1 h 20 min
  82. Bit rate                                 : 27.6 kb/s
  83. Count of elements                        : 1699
  84. Stream size                              : 16.0 MiB (0%)
  85. Title                                    : CHS
  86. Language                                 : Chinese
  87. Default                                  : No
  88. Forced                                   : No
  89. Text #4
  90. ID                                       : 6
  91. Format                                   : PGS
  92. Muxing mode                              : zlib
  93. Codec ID                                 : S_HDMV/PGS
  94. Codec ID/Info                            : Picture based subtitle format used on BDs/HD-DVDs
  95. Duration                                 : 1 h 20 min
  96. Bit rate                                 : 27.5 kb/s
  97. Count of elements                        : 1699
  98. Stream size                              : 15.9 MiB (0%)
  99. Language                                 : English
  100. Default                                  : No
  101. Forced                                   : No
  102. Menu
  103. 00:00:00.000                             : :绗?01 绔?
  104. 00:04:29.750                             : :绗?02 绔?
  105. 00:14:26.917                             : :绗?03 绔?
  106. 00:21:39.042                             : :绗?04 绔?
  107. 00:28:01.167                             : :绗?05 绔?
  108. 00:36:29.750                             : :绗?06 绔?
  109. 00:42:42.083                             : :绗?07 绔?
  110. 00:49:45.417                             : :绗?08 绔?
  111. 00:56:53.792                             : :绗?09 绔?
  112. 01:06:43.750                             : :绗?10 绔?
  113. 01:12:43.083                             : :绗?11 绔?
  114. 01:17:30.917                             : :绗?12 绔?
复制代码






                                       
                                       

                                       
                                       
                                       




回复

使用道具 举报

懒得打字嘛,点击右侧快捷回复 【右侧内容,后台自定义】
您需要登录后才可以回帖 登录 | 立即加入

本版积分规则

Archiver|小黑屋| 蓝光电影网 |网站地图

Copyright © 2021 Comsenz Inc. Powered by 蓝光电影网

蓝光电影网

本站内容由用户自主分享和转载自互联网,转载目的在于传递更多信息,并不代表本网赞同其观点和对其真实性负责。

如有侵权、违反国家法律政策行为,请联系我们,我们会第一时间及时清除和处理!

举报反馈邮箱:[email protected]

快速回复 返回顶部 返回列表