找回密码

蓝光电影网

查看: 11|回复: 0

[剧情] 赌城纵横 Hard.Eight.1996.1080p.BluRay.x264-HANDJOB 8.12GB

[复制链接]
蓝光币
515
发表于 2020-11-5 23:08:12 | 显示全部楼层 |阅读模式


◎译  名 赌城纵横/Sydney/赌场纵横/赌城新王牌
◎片  名 Hard Eight
◎年  代 1996
◎产  地 美国
◎类  别 剧情 / 犯罪
◎语  言 英语
◎上映日期 1997-10-17
◎IMDb评分  7.2/10 from 41173 users
◎IMDb链接  https://www.imdb.com/title/tt0119256/
◎豆瓣评分 6.8/10 from 1182 users
◎豆瓣链接 https://movie.douban.com/subject/1417898/
◎片  长 102 分钟
◎导  演 保罗·托马斯·安德森 Paul Thomas Anderson
◎编  剧 保罗·托马斯·安德森 Paul Thomas Anderson
◎主  演 菲利普·贝克·霍尔 Philip Baker Hall
       约翰·C·赖利 John C. Reilly
       格温妮斯·帕特洛 Gwyneth Paltrow
       塞缪尔·杰克逊 Samuel L. Jackson
       F·威廉·帕克 F. William Parker
       菲利普·塞默·霍夫曼 Philip Seymour Hoffman
       梅洛拉·沃尔特斯 Melora Walters
       Ernie Anderson
       罗伯特·雷吉祥 Robert Ridgely
◎标  签 美国 | 保罗·托马斯·安德森 | PaulThomasAnderson | 1996 | 剧情 | 犯罪 | 美国电影 | 1990s
◎简  介


  一次偶然中,西德尼(菲利浦·贝克·霍尔 Philip Baker Hall 饰)碰见了名为约翰(约翰·C·赖利 John C. Reilly 饰)的男人,他将贫困失意的约翰带到了赌场当中,教会了他赌术,希望约翰可以借此否极泰来。在赌场,西德尼碰见了违反了赌场规定和客人停止精神买卖的女招待克莱门汀(格温妮丝·帕特洛 Gwyneth Paltrow 饰),哪晓得克莱门汀和约翰一碰头就坠入了情网,顿时决议携手步入婚姻的殿堂。
  
  西德尼的朋友吉米(塞缪尔·杰克逊 Samuel L. Jackson 饰)找到了西德尼,他的手中握着一个属于西德尼的奥秘。现在,吉米以这个奥秘为筹码想要威胁和勒索西德尼,不意却惹上了杀身之祸。
  1. Video
  2. ID                                       : 1
  3. Format                                   : AVC
  4. Format/Info                              : Advanced Video Codec
  5. Format profile                           : [email protected]
  6. Format settings                          : CABAC / 5 Ref Frames
  7. Format settings, CABAC                   : Yes
  8. Format settings, Reference frames        : 5 frames
  9. Codec ID                                 : V_MPEG4/ISO/AVC
  10. Duration                                 : 1 h 41 min
  11. Bit rate                                 : 10.7 Mb/s
  12. Width                                    : 1 916 pixels
  13. Height                                   : 806 pixels
  14. Display aspect ratio                     : 2.40:1
  15. Frame rate mode                          : Constant
  16. Frame rate                               : 23.976 (24000/1001/189150) FPS
  17. Color space                              : YUV
  18. Chroma subsampling                       : 4:2:0
  19. Bit depth                                : 8 bits
  20. Scan type                                : Progressive
  21. Bits/(Pixel*Frame)                       : 0.288
  22. Stream size                              : 7.59 GiB (93%)
  23. Writing library                          : x264 core 157 r2935 545de2f
  24. Encoding settings                        : cabac=1 / ref=5 / deblock=1:-3:-3 / analyse=0x3:0x133 / me=umh / subme=10 / psy=1 / psy_rd=1.00:0.00 / mixed_ref=1 / me_range=32 / chroma_me=1 / trellis=2 / 8x8dct=1 / cqm=0 / deadzone=21,11 / fast_pskip=0 / chroma_qp_offset=-2 / threads=6 / lookahead_threads=1 / sliced_threads=0 / nr=0 / decimate=0 / interlaced=0 / bluray_compat=0 / constrained_intra=0 / bframes=16 / b_pyramid=2 / b_adapt=2 / b_bias=0 / direct=3 / weightb=1 / open_gop=0 / weightp=2 / keyint=240 / keyint_min=24 / scenecut=40 / intra_refresh=0 / rc_lookahead=60 / rc=crf / mbtree=0 / crf=20.2 / qcomp=0.65 / qpmin=0 / qpmax=69 / qpstep=4 / vbv_maxrate=62500 / vbv_bufsize=78125 / crf_max=0.0 / nal_hrd=none / filler=0 / ip_ratio=1.40 / pb_ratio=1.30 / aq=3:0.90
  25. Default                                  : Yes
  26. Forced                                   : No
  27. Color range                              : Limited
  28. Color primaries                          : BT.709
  29. Transfer characteristics                 : BT.709
  30. Matrix coefficients                      : BT.709
  31. Audio #1
  32. ID                                       : 2
  33. Format                                   : FLAC
  34. Format/Info                              : Free Lossless Audio Codec
  35. Codec ID                                 : A_FLAC
  36. Duration                                 : 1 h 41 min
  37. Bit rate mode                            : Variable
  38. Bit rate                                 : 570 kb/s
  39. Channel(s)                               : 2 channels
  40. Channel layout                           : L R
  41. Sampling rate                            : 48.0 kHz
  42. Frame rate                               : 11.719 FPS (4096 SPF)
  43. Bit depth                                : 16 bits
  44. Compression mode                         : Lossless
  45. Stream size                              : 415 MiB (5%)
  46. Writing library                          : libFLAC 1.3.1 (UTC 2014-11-25)
  47. Language                                 : English
  48. Default                                  : Yes
  49. Forced                                   : No
  50. Audio #2
  51. ID                                       : 3
  52. Format                                   : AAC LC
  53. Format/Info                              : Advanced Audio Codec Low Complexity
  54. Codec ID                                 : A_AAC-2
  55. Duration                                 : 1 h 41 min
  56. Bit rate                                 : 76.8 kb/s
  57. Channel(s)                               : 2 channels
  58. Channel layout                           : L R
  59. Sampling rate                            : 48.0 kHz
  60. Frame rate                               : 46.875 FPS (1024 SPF)
  61. Compression mode                         : Lossy
  62. Stream size                              : 56.0 MiB (1%)
  63. Title                                    : Commentary by director Paul Thomas Anderson and actor Philip Baker Hall
  64. Language                                 : English
  65. Default                                  : No
  66. Forced                                   : No
  67. Audio #3
  68. ID                                       : 4
  69. Format                                   : AAC LC
  70. Format/Info                              : Advanced Audio Codec Low Complexity
  71. Codec ID                                 : A_AAC-2
  72. Duration                                 : 1 h 41 min
  73. Bit rate                                 : 99.8 kb/s
  74. Channel(s)                               : 2 channels
  75. Channel layout                           : L R
  76. Sampling rate                            : 48.0 kHz
  77. Frame rate                               : 46.875 FPS (1024 SPF)
  78. Compression mode                         : Lossy
  79. Stream size                              : 72.7 MiB (1%)
  80. Title                                    : Commentary by director Paul Thomas Anderson, actor Philip Baker Hall, and crew members, moderated by Sundance Institue director Michelle Satter
  81. Language                                 : English
  82. Default                                  : No
  83. Forced                                   : No
  84. Text #1
  85. ID                                       : 5
  86. Format                                   : UTF-8
  87. Codec ID                                 : S_TEXT/UTF8
  88. Codec ID/Info                            : UTF-8 Plain Text
  89. Duration                                 : 1 h 32 min
  90. Bit rate                                 : 56 b/s
  91. Count of elements                        : 1167
  92. Stream size                              : 38.1 KiB (0%)
  93. Language                                 : English
  94. Default                                  : No
  95. Forced                                   : No
  96. Text #2
  97. ID                                       : 6
  98. Format                                   : UTF-8
  99. Codec ID                                 : S_TEXT/UTF8
  100. Codec ID/Info                            : UTF-8 Plain Text
  101. Duration                                 : 1 h 32 min
  102. Bit rate                                 : 59 b/s
  103. Count of elements                        : 1387
  104. Stream size                              : 40.4 KiB (0%)
  105. Title                                    : Hard of Hearing
  106. Language                                 : English
  107. Default                                  : No
  108. Forced                                   : No
  109. Text #3
  110. ID                                       : 7
  111. Format                                   : VobSub
  112. Muxing mode                              : zlib
  113. Codec ID                                 : S_VOBSUB
  114. Codec ID/Info                            : Picture based subtitle format used on DVDs
  115. Duration                                 : 1 h 32 min
  116. Bit rate                                 : 3 177 b/s
  117. Count of elements                        : 1171
  118. Stream size                              : 2.10 MiB (0%)
  119. Language                                 : Spanish
  120. Default                                  : No
  121. Forced                                   : No
  122. Menu
  123. 00:00:00.000                             : :Start
  124. 00:01:43.103                             : :Sydney & John
  125. 00:06:48.658                             : :"Come With Me."
  126. 00:08:47.360                             : :In the Car
  127. 00:12:00.094                             : :Cash to Tokens
  128. 00:15:30.096                             : :Tokens to Cash
  129. 00:18:18.389                             : :"Good to Meet a Friend."
  130. 00:21:51.435                             : :Two Years Later
  131. 00:24:15.079                             : :Jimmy
  132. 00:29:17.547                             : :Sydney\'s Work Walk
  133. 00:32:05.090                             : :Coffee Shop
  134. 00:35:23.747                             : :Clementine\'s Loop
  135. 00:43:13.925                             : :Craps Table
  136. 00:47:29.221                             : :Motel I
  137. 00:57:11.762                             : :Motel II
  138. 01:05:02.315                             : :Sydney & Clementine
  139. 01:09:49.644                             : :Driving & Wedding
  140. 01:11:54.352                             : :Jimmy\'s Note
  141. 01:16:05.936                             : :"So Now, What Then?"
  142. 01:18:24.491                             : :Threatening Word
  143. 01:20:11.348                             : :Sydney\'s Suite
  144. 01:24:05.040                             : :Monologue
  145. 01:26:43.073                             : :The Phone Call
  146. 01:31:08.922                             : :Waiting for Jimmy
  147. 01:34:04.597                             : :Sydney Doesn\'t Speak
  148. 01:36:24.862                             : :On the Cuff
  149. 01:37:33.348                             : :End Credits
复制代码





                                       
                                       

                                       
                                       
                                       




回复

使用道具 举报

懒得打字嘛,点击右侧快捷回复 【右侧内容,后台自定义】
您需要登录后才可以回帖 登录 | 立即加入

本版积分规则

Archiver|小黑屋| 蓝光电影网 |网站地图

Copyright © 2021 Comsenz Inc. Powered by 蓝光电影网

蓝光电影网

本站内容由用户自主分享和转载自互联网,转载目的在于传递更多信息,并不代表本网赞同其观点和对其真实性负责。

如有侵权、违反国家法律政策行为,请联系我们,我们会第一时间及时清除和处理!

举报反馈邮箱:[email protected]

快速回复 返回顶部 返回列表