找回密码

蓝光电影网

查看: 8|回复: 0

[剧情] 二十四周 24.Weeks.2016.1080p.BluRay.x264-USURY 8.74GB

[复制链接]
蓝光币
519
发表于 2020-11-5 11:28:31 | 显示全部楼层 |阅读模式


◎译  名 二十四周/24 Weeks/24周
◎片  名 24 Wochen
◎年  代 2016
◎产  地 德国
◎类  别 剧情 / 家庭
◎语  言 德语
◎上映日期 2016-02-14(柏林电影节)
◎IMDb评分  7.2/10 from 1501 users
◎IMDb链接  https://www.imdb.com/title/tt5369484/
◎豆瓣评分 7.1/10 from 912 users
◎豆瓣链接 https://movie.douban.com/subject/26712793/
◎片  长 102分钟
◎导  演 安娜·左拉·贝哈赫德 Anne Zohra Berrached
◎编  剧 卡尔·格柏 Carl Gerber / 安娜·左拉·贝哈赫德 Anne Zohra Berrached
◎主  演 尤莉亚·延奇 Julia Jentsch
       比亚内·梅德尔 Bjarne M?del
       约翰娜·加斯多夫 Johanna Gastdorf
       艾米莉亚·派斯克 Emilia Pieske
       玛丽亚·德拉格斯 Maria Dragus
       卡瑞娜·普拉赫特卡 Karina Plachetka
       莎彬·沃尔夫 Sabine Wolf
◎标  签 德国 | 女性 | 家庭 | 人性 | 2016 | 剧情 | 孕产 | 女权
◎简  介


  电影报告了一个奇迹有成的卡巴莱女演员Astrid Lorenz (Julia Jentsch饰),在怀第二个宝宝时,检查发现腹中婴儿诞生后会得了唐氏综合症和严重的天赋性心脏病。德公法令规定,这类情况下怙恃一向到生产前都有权利挑选堕胎。鉴于孩子已满24周,有能够已可以分开母腹存活,此时如若堕胎,孩子需要先被注射停止心跳。Astrid和丈夫面临道德和人性的考验,她将若何决定?
◎获奖情况
  第66届柏林国际电影节 ?(2016)
  金熊奖最好影片(提名) 安娜·左拉·贝哈赫德
  1. Video
  2. ID                                       : 1
  3. Format                                   : AVC
  4. Format/Info                              : Advanced Video Codec
  5. Format profile                           : [email protected]
  6. Format settings                          : CABAC / 5 Ref Frames
  7. Format settings, CABAC                   : Yes
  8. Format settings, Reference frames        : 5 frames
  9. Codec ID                                 : V_MPEG4/ISO/AVC
  10. Duration                                 : 1 h 42 min
  11. Bit rate                                 : 10.8 Mb/s
  12. Width                                    : 1 920 pixels
  13. Height                                   : 808 pixels
  14. Display aspect ratio                     : 2.40:1
  15. Frame rate mode                          : Constant
  16. Frame rate                               : 24.000 FPS
  17. Color space                              : YUV
  18. Chroma subsampling                       : 4:2:0
  19. Bit depth                                : 8 bits
  20. Scan type                                : Progressive
  21. Bits/(Pixel*Frame)                       : 0.289
  22. Stream size                              : 7.66 GiB (88%)
  23. Writing library                          : x264 core 148 r2744 b97ae06
  24. Encoding settings                        : cabac=1 / ref=5 / deblock=1:-3:-3 / analyse=0x3:0x133 / me=umh / subme=9 / psy=1 / psy_rd=1.00:0.00 / mixed_ref=1 / me_range=16 / chroma_me=1 / trellis=2 / 8x8dct=1 / cqm=0 / deadzone=21,11 / fast_pskip=0 / chroma_qp_offset=-2 / threads=25 / lookahead_threads=2 / sliced_threads=0 / nr=0 / decimate=1 / interlaced=0 / bluray_compat=0 / constrained_intra=0 / bframes=3 / b_pyramid=2 / b_adapt=1 / b_bias=0 / direct=3 / weightb=1 / open_gop=0 / weightp=2 / keyint=250 / keyint_min=24 / scenecut=40 / intra_refresh=0 / rc_lookahead=50 / rc=2pass / mbtree=1 / bitrate=10751 / ratetol=1.0 / qcomp=0.60 / qpmin=0 / qpmax=69 / qpstep=4 / cplxblur=20.0 / qblur=0.5 / ip_ratio=1.40 / aq=1:1.00
  25. Language                                 : English
  26. Default                                  : Yes
  27. Forced                                   : No

  28. Audio
  29. ID                                       : 2
  30. Format                                   : DTS
  31. Format/Info                              : Digital Theater Systems
  32. Codec ID                                 : A_DTS
  33. Duration                                 : 1 h 42 min
  34. Bit rate mode                            : Constant
  35. Bit rate                                 : 1 509 kb/s
  36. Channel(s)                               : 6 channels
  37. Channel layout                           : C L R Ls Rs LFE
  38. Sampling rate                            : 48.0 kHz
  39. Frame rate                               : 93.750 FPS (512 SPF)
  40. Bit depth                                : 24 bits
  41. Compression mode                         : Lossy
  42. Stream size                              : 1.08 GiB (12%)
  43. Language                                 : German
  44. Default                                  : Yes
  45. Forced                                   : No

  46. Text
  47. ID                                       : 3
  48. Format                                   : UTF-8
  49. Codec ID                                 : S_TEXT/UTF8
  50. Codec ID/Info                            : UTF-8 Plain Text
  51. Duration                                 : 1 h 40 min
  52. Bit rate                                 : 44 b/s
  53. Count of elements                        : 906
  54. Stream size                              : 32.6 KiB (0%)
  55. Title                                    : forced
  56. Language                                 : English
  57. Default                                  : Yes
  58. Forced                                   : Yes

  59. Menu
  60. 00:00:00.000                             : en:00:00:00.000
  61. 00:01:12.417                             : en:00:01:12.417
  62. 00:10:57.708                             : en:00:10:57.708
  63. 00:20:37.000                             : en:00:20:37.000
  64. 00:30:17.000                             : en:00:30:17.000
  65. 00:41:40.542                             : en:00:41:40.542
  66. 00:55:11.500                             : en:00:55:11.500
  67. 01:03:59.667                             : en:01:03:59.667
  68. 01:14:14.875                             : en:01:14:14.875
  69. 01:22:10.083                             : en:01:22:10.083
  70. 01:33:19.208                             : en:01:33:19.208
  71. 01:38:19.750                             : en:01:38:19.750
复制代码




                                       
                                       

                                       
                                       
                                       




回复

使用道具 举报

懒得打字嘛,点击右侧快捷回复 【右侧内容,后台自定义】
您需要登录后才可以回帖 登录 | 立即加入

本版积分规则

Archiver|小黑屋| 蓝光电影网 |网站地图

Copyright © 2021 Comsenz Inc. Powered by 蓝光电影网

蓝光电影网

本站内容由用户自主分享和转载自互联网,转载目的在于传递更多信息,并不代表本网赞同其观点和对其真实性负责。

如有侵权、违反国家法律政策行为,请联系我们,我们会第一时间及时清除和处理!

举报反馈邮箱:[email protected]

快速回复 返回顶部 返回列表