找回密码

蓝光电影网

查看: 15|回复: 0

[剧情] 濒临边缘的人 Stopped.on.Track.2011.1080p.BluRay.x264-USURY 6.56GB

[复制链接]
蓝光币
515
发表于 2020-11-5 11:25:55 | 显示全部楼层 |阅读模式


◎译  名 接近边沿的人/Stopped on Track/停止跟踪/戛但是止/接近边沿的人(台)/生命的轨迹(港)
◎片  名 Halt auf freier Strecke
◎年  代 2011
◎产  地 法国,德国
◎类  别 剧情
◎语  言 德语
◎上映日期 2011-05-15(戛纳电影节) / 2011-11-17(德国)
◎IMDb评分  7.6/10 from 1484 users
◎IMDb链接  https://www.imdb.com/title/tt1780856/
◎豆瓣评分 7.6/10 from 1224 users
◎豆瓣链接 https://movie.douban.com/subject/5990243/
◎片  长 110分钟
◎导  演 安德里亚斯·德里森 Andreas Dresen
◎编  剧 安德里亚斯·德里森 Andreas Dresen / Cooky Ziesche
◎主  演 Talisa Lilly Lemke
       英卡·芙德瑞 Inka Friedrich
       索斯藤·默滕 Thorsten Merten
       Bernhard Schütz
       克莉斯汀·施恩 Christine Schorn
       奥托·梅利斯 Otto Mellies
       米卡·赛德尔 Mika Seidel
       斯特菲·库内特 Steffi Kühnert
       米兰·佩舍尔 Milan Peschel
       Marie Rosa Tietjen
◎标  签 德国 | 德国电影 | 剧情 | 2011 | 人性 | 安德里亚斯·德里森 | 第64届戛纳电影节 | 一种关注
◎简  介


  弗兰克(米兰·佩斯彻尔 Milan Peschel饰)和西蒙(斯黛菲·库恩特 Steffi Kühnert饰)本是一对幸运的佳耦,他们具有稳定的工作、新买的屋子,还有一双后代。但是一个突如其来的消息不但让弗兰克震动,更让全部家庭都瞬间坍塌——弗兰克被诊断出脑部长了一颗不能脱手术的肿瘤。行将面临灭亡的他,在极力克服着药物治疗和化学治疗带来的副感化。弗兰克所剩光阴不多,他起头用手机天天记录下这生命的最初时辰。
  
  本片荣获2011年第64届戛纳电影节一种关注单元一种关注大奖。导演论述这部电影的源起来本身旁一些饱受疾病困扰的朋友,这些行将走到生命绝顶的过程,就成为了本片的故事。影片几近没有剧本,只要简单的纲领,一切的对话都来自演员的现场发挥。
◎获奖情况
  第64届戛纳电影节 ?(2011)
  一种关注单元一种关注大奖 安德里亚斯·德里森
  
  第62届德国电影奖 ?(2012)
  最好影片金奖 PeterRommel
  最好男配角 米兰·佩舍尔
  最好女配角(提名) 斯特菲·库内特
  最好男配角 奥托·梅利斯
  最好导演 安德里亚斯·德里森
  最好剧本(提名) 安德里亚斯·德里森?/?CookyZiesche
  最好剪辑(提名) J?rgHauschild
  1. Video
  2. ID                                       : 1
  3. Format                                   : AVC
  4. Format/Info                              : Advanced Video Codec
  5. Format profile                           : [email protected]
  6. Format settings                          : CABAC / 4 Ref Frames
  7. Format settings, CABAC                   : Yes
  8. Format settings, Reference frames        : 4 frames
  9. Codec ID                                 : V_MPEG4/ISO/AVC
  10. Duration                                 : 1 h 49 min
  11. Bit rate                                 : 8 100 kb/s
  12. Width                                    : 1 920 pixels
  13. Height                                   : 1 040 pixels
  14. Display aspect ratio                     : 1.85:1
  15. Frame rate mode                          : Constant
  16. Frame rate                               : 24.000 FPS
  17. Color space                              : YUV
  18. Chroma subsampling                       : 4:2:0
  19. Bit depth                                : 8 bits
  20. Scan type                                : Progressive
  21. Bits/(Pixel*Frame)                       : 0.169
  22. Stream size                              : 6.21 GiB (95%)
  23. Writing library                          : x264 core 146 r2538 121396c
  24. Encoding settings                        : cabac=1 / ref=4 / deblock=1:0:0 / analyse=0x3:0x133 / me=umh / subme=7 / psy=1 / psy_rd=1.00:0.00 / mixed_ref=1 / me_range=16 / chroma_me=1 / trellis=1 / 8x8dct=1 / cqm=0 / deadzone=21,11 / fast_pskip=0 / chroma_qp_offset=-2 / threads=12 / lookahead_threads=2 / sliced_threads=0 / nr=0 / decimate=1 / interlaced=0 / bluray_compat=0 / constrained_intra=0 / bframes=3 / b_pyramid=2 / b_adapt=2 / b_bias=0 / direct=3 / weightb=1 / open_gop=0 / weightp=2 / keyint=250 / keyint_min=23 / scenecut=40 / intra_refresh=0 / rc_lookahead=50 / rc=2pass / mbtree=1 / bitrate=8100 / ratetol=1.0 / qcomp=0.60 / qpmin=0 / qpmax=69 / qpstep=4 / cplxblur=20.0 / qblur=0.5 / ip_ratio=1.40 / aq=1:1.00
  25. Language                                 : English
  26. Default                                  : Yes
  27. Forced                                   : No

  28. Audio
  29. ID                                       : 2
  30. Format                                   : AC-3
  31. Format/Info                              : Audio Coding 3
  32. Commercial name                          : Dolby Digital
  33. Codec ID                                 : A_AC3
  34. Duration                                 : 1 h 49 min
  35. Bit rate mode                            : Constant
  36. Bit rate                                 : 448 kb/s
  37. Channel(s)                               : 6 channels
  38. Channel layout                           : L R C LFE Ls Rs
  39. Sampling rate                            : 48.0 kHz
  40. Frame rate                               : 31.250 FPS (1536 SPF)
  41. Compression mode                         : Lossy
  42. Stream size                              : 352 MiB (5%)
  43. Language                                 : German
  44. Service kind                             : Complete Main
  45. Default                                  : Yes
  46. Forced                                   : No

  47. Text
  48. ID                                       : 3
  49. Format                                   : UTF-8
  50. Codec ID                                 : S_TEXT/UTF8
  51. Codec ID/Info                            : UTF-8 Plain Text
  52. Duration                                 : 1 h 47 min
  53. Bit rate                                 : 35 b/s
  54. Count of elements                        : 1014
  55. Stream size                              : 27.8 KiB (0%)
  56. Language                                 : English
  57. Default                                  : Yes
  58. Forced                                   : Yes

  59. Menu
  60. 00:00:00.000                             : en:00:00:00.000
  61. 00:08:12.042                             : en:00:08:12.042
  62. 00:20:42.417                             : en:00:20:42.417
  63. 00:29:44.167                             : en:00:29:44.167
  64. 00:35:22.333                             : en:00:35:22.333
  65. 00:43:34.917                             : en:00:43:34.917
  66. 00:47:38.167                             : en:00:47:38.167
  67. 00:54:19.333                             : en:00:54:19.333
  68. 01:07:04.833                             : en:01:07:04.833
  69. 01:13:26.583                             : en:01:13:26.583
  70. 01:21:04.417                             : en:01:21:04.417
  71. 01:27:44.167                             : en:01:27:44.167
  72. 01:32:02.625                             : en:01:32:02.625
  73. 01:36:44.125                             : en:01:36:44.125
  74. 01:44:00.250                             : en:01:44:00.250
  75. 01:47:25.042                             : en:01:47:25.042
复制代码






                                       
                                       

                                       
                                       
                                       




回复

使用道具 举报

懒得打字嘛,点击右侧快捷回复 【右侧内容,后台自定义】
您需要登录后才可以回帖 登录 | 立即加入

本版积分规则

Archiver|小黑屋| 蓝光电影网 |网站地图

Copyright © 2021 Comsenz Inc. Powered by 蓝光电影网

蓝光电影网

本站内容由用户自主分享和转载自互联网,转载目的在于传递更多信息,并不代表本网赞同其观点和对其真实性负责。

如有侵权、违反国家法律政策行为,请联系我们,我们会第一时间及时清除和处理!

举报反馈邮箱:[email protected]

快速回复 返回顶部 返回列表