找回密码

蓝光电影网

查看: 6|回复: 0

[剧情] 白色鳄鱼 Albino.Alligator.1996.1080p.BluRay.x264-USURY 6.55GB

[复制链接]
蓝光币
515
发表于 2020-11-5 10:39:48 | 显示全部楼层 |阅读模式


◎译  名 红色鳄鱼
◎片  名 Albino Alligator
◎年  代 1996
◎产  地 美国,法国
◎类  别 剧情 / 惊悚 / 犯罪
◎语  言 英语
◎上映日期 1996-09-09
◎IMDb评分  6.1/10 from 7524 users
◎IMDb链接  https://www.imdb.com/title/tt0115495/
◎豆瓣评分 6.5/10 from 184 users
◎豆瓣链接 https://movie.douban.com/subject/1294116/
◎片  长 97 分钟
◎导  演 凯文·史派西 Kevin Spacey
◎主  演 马特·狄龙 Matt Dillon
       费·唐纳薇 Faye Dunaway
       加里·西尼斯 Gary Sinise
◎标  签 犯罪 | 美国 | 惊悚 | 1996 | KevinSpacey | 剧情 | 美国电影 | 电影
◎简  介


  三名差人在送三名判刑的监犯入狱前被抢走警枪及杀掉。三名监犯偷车逃到一小镇的酒吧,怎料酒吧本来的不法修建,底子没有后门,因而三个亡命之徒只好挟持酒吧中的人做人质,向警方讨取逃诞生命的机遇。
  1. Video
  2. ID                                       : 1
  3. Format                                   : AVC
  4. Format/Info                              : Advanced Video Codec
  5. Format profile                           : [email protected]
  6. Format settings                          : CABAC / 5 Ref Frames
  7. Format settings, CABAC                   : Yes
  8. Format settings, Reference frames        : 5 frames
  9. Codec ID                                 : V_MPEG4/ISO/AVC
  10. Duration                                 : 1 h 33 min
  11. Bit rate                                 : 8 507 kb/s
  12. Width                                    : 1 920 pixels
  13. Height                                   : 816 pixels
  14. Display aspect ratio                     : 2.35:1
  15. Frame rate mode                          : Constant
  16. Frame rate                               : 23.976 FPS
  17. Color space                              : YUV
  18. Chroma subsampling                       : 4:2:0
  19. Bit depth                                : 8 bits
  20. Scan type                                : Progressive
  21. Bits/(Pixel*Frame)                       : 0.226
  22. Stream size                              : 5.58 GiB (85%)
  23. Writing library                          : x264 core 146 r2538 121396c
  24. Encoding settings                        : cabac=1 / ref=5 / deblock=1:0:0 / analyse=0x3:0x133 / me=umh / subme=7 / psy=1 / psy_rd=1.00:0.00 / mixed_ref=1 / me_range=16 / chroma_me=1 / trellis=1 / 8x8dct=1 / cqm=0 / deadzone=21,11 / fast_pskip=0 / chroma_qp_offset=-2 / threads=60 / lookahead_threads=6 / sliced_threads=0 / nr=0 / decimate=1 / interlaced=0 / bluray_compat=0 / constrained_intra=0 / bframes=3 / b_pyramid=2 / b_adapt=2 / b_bias=0 / direct=3 / weightb=1 / open_gop=0 / weightp=2 / keyint=250 / keyint_min=23 / scenecut=40 / intra_refresh=0 / rc_lookahead=50 / rc=2pass / mbtree=1 / bitrate=8507 / ratetol=1.0 / qcomp=0.60 / qpmin=0 / qpmax=69 / qpstep=4 / cplxblur=20.0 / qblur=0.5 / ip_ratio=1.40 / aq=1:1.00
  25. Language                                 : English
  26. Default                                  : Yes
  27. Forced                                   : No

  28. Audio
  29. ID                                       : 2
  30. Format                                   : DTS
  31. Format/Info                              : Digital Theater Systems
  32. Codec ID                                 : A_DTS
  33. Duration                                 : 1 h 32 min
  34. Bit rate mode                            : Constant
  35. Bit rate                                 : 1 509 kb/s
  36. Channel(s)                               : 6 channels
  37. Channel layout                           : C L R Ls Rs LFE
  38. Sampling rate                            : 48.0 kHz
  39. Frame rate                               : 93.750 FPS (512 SPF)
  40. Bit depth                                : 24 bits
  41. Compression mode                         : Lossy
  42. Stream size                              : 994 MiB (15%)
  43. Language                                 : English
  44. Default                                  : Yes
  45. Forced                                   : No

  46. Menu
  47. 00:00:00.000                             : en:00:00:00.000
  48. 00:05:11.311                             : en:00:05:11.311
  49. 00:08:48.528                             : en:00:08:48.528
  50. 00:17:00.770                             : en:00:17:00.770
  51. 00:21:37.296                             : en:00:21:37.296
  52. 00:27:11.630                             : en:00:27:11.630
  53. 00:33:29.466                             : en:00:33:29.466
  54. 00:40:34.432                             : en:00:40:34.432
  55. 00:45:59.715                             : en:00:45:59.715
  56. 00:53:47.224                             : en:00:53:47.224
  57. 00:59:47.584                             : en:00:59:47.584
  58. 01:04:03.465                             : en:01:04:03.465
  59. 01:12:17.333                             : en:01:12:17.333
  60. 01:17:35.484                             : en:01:17:35.484
  61. 01:25:41.970                             : en:01:25:41.970
复制代码






                                       
                                       

                                       
                                       
                                       




回复

使用道具 举报

懒得打字嘛,点击右侧快捷回复 【右侧内容,后台自定义】
您需要登录后才可以回帖 登录 | 立即加入

本版积分规则

Archiver|小黑屋| 蓝光电影网 |网站地图

Copyright © 2021 Comsenz Inc. Powered by 蓝光电影网

蓝光电影网

本站内容由用户自主分享和转载自互联网,转载目的在于传递更多信息,并不代表本网赞同其观点和对其真实性负责。

如有侵权、违反国家法律政策行为,请联系我们,我们会第一时间及时清除和处理!

举报反馈邮箱:[email protected]

快速回复 返回顶部 返回列表