找回密码

蓝光电影网

查看: 14|回复: 0

[剧情] 四季商人 The.Merchant.of.Four.Seasons.1971.1080p.BluRay.x264-USURY 5.47GB

[复制链接]
蓝光币
515
发表于 2020-11-5 10:36:24 | 显示全部楼层 |阅读模式


◎译  名 四时贩子/The Merchant of Four Seasons
◎片  名 H?ndler der vier Jahreszeiten
◎年  代 1972
◎产  地 西德
◎类  别 剧情
◎语  言 德语,阿拉伯语
◎上映日期 1972-03-10(西德)
◎IMDb评分  7.4/10 from 4204 users
◎IMDb链接  https://www.imdb.com/title/tt0067227/
◎豆瓣评分 7.9/10 from 1590 users
◎豆瓣链接 https://movie.douban.com/subject/1298863/
◎片  长 88 分钟
◎导  演 赖纳·维尔纳·法斯宾德 Rainer Werner Fassbinder
◎编  剧 赖纳·维尔纳·法斯宾德 Rainer Werner Fassbinder
◎主  演 汉斯·希尔斯缪勒 Hans Hirschmüller
       伊尔姆·赫尔曼 Irm Hermann
       汉娜·许古拉 Hanna Schygulla
       安德里亚·舒伯 Andrea Schober
       克劳斯·洛维奇 Klaus L?witsch
       库尔特·拉布 Kurt Raab
       英格丽·卡文 Ingrid Caven
       埃尔·赫迪·本·萨利姆 El Hedi ben Salem
       Gusti Kreissl
       Heide Simon
       彼得·沙泰勒 Peter Chatel
       莉萝·潘蓓 Lilo Pempeit
       Walter Sedlmayr
       Peter Gauhe
       哈克·波姆 Hark Bohm
       Michael Fengler
       丹尼尔·施密德 Daniel Schmid
       尤尔根·普洛斯诺 Jürgen Prochnow
       赖纳·维尔纳·法斯宾德 Rainer Werner Fassbinder
       哈里·贝尔 Harry Baer
◎标  签 德国 | 法斯宾德 | 德国电影 | RainerWernerFassbinder | 1970s | 赖纳·维尔纳·法斯宾德 | 1972 | Rainer_Werner_Fassbinder
◎简  介


  已经是一位差人的汉斯(汉斯·希尔斯缪勒 Hans Hirschmüller 饰)由于被妓女诬陷而丢掉了工作,为了生活,心胸弘愿的他不能不成为了一位水果小贩。汉斯没法获得心爱姑娘的怙恃的信赖和欣赏,已经到了成家年龄的他终极娶了名叫伊尔姆加特(伊尔姆·海尔曼 Irm Her mann 饰)的女人。
  
  自打成婚后,汉斯的人生正式走上的下坡路,伊尔姆加特的粗鲁和无礼为汉斯的不快意落井下石。汉斯得了心脏病,在住院时代,独守空屋的伊尔姆加特耐不住孤单,和邻人安策尔(Karl Scheydt 饰)之间发生了不道德的关系。出院后的汉斯已经有力再沿街叫卖水果了,改成摆水果摊。一次偶然中,他与战友哈里(Klaus L?witsch 饰)重逢了,虽然哈里给汉斯一家带来了很多的欢畅,但他照旧没法阻止汉斯走向失望。
  1. Video
  2. ID                                       : 1
  3. Format                                   : AVC
  4. Format/Info                              : Advanced Video Codec
  5. Format profile                           : [email protected]
  6. Format settings                          : CABAC / 4 Ref Frames
  7. Format settings, CABAC                   : Yes
  8. Format settings, Reference frames        : 4 frames
  9. Codec ID                                 : V_MPEG4/ISO/AVC
  10. Duration                                 : 1 h 28 min
  11. Bit rate                                 : 8 174 kb/s
  12. Width                                    : 1 488 pixels
  13. Height                                   : 1 080 pixels
  14. Display aspect ratio                     : 1.378
  15. Frame rate mode                          : Constant
  16. Frame rate                               : 23.976 FPS
  17. Color space                              : YUV
  18. Chroma subsampling                       : 4:2:0
  19. Bit depth                                : 8 bits
  20. Scan type                                : Progressive
  21. Bits/(Pixel*Frame)                       : 0.212
  22. Stream size                              : 5.07 GiB (93%)
  23. Writing library                          : x264 core 146 r2538 121396c
  24. Encoding settings                        : cabac=1 / ref=4 / deblock=1:0:0 / analyse=0x3:0x133 / me=umh / subme=7 / psy=1 / psy_rd=1.00:0.00 / mixed_ref=1 / me_range=16 / chroma_me=1 / trellis=1 / 8x8dct=1 / cqm=0 / deadzone=21,11 / fast_pskip=0 / chroma_qp_offset=-2 / threads=6 / lookahead_threads=1 / sliced_threads=0 / nr=0 / decimate=1 / interlaced=0 / bluray_compat=0 / constrained_intra=0 / bframes=3 / b_pyramid=2 / b_adapt=2 / b_bias=0 / direct=3 / weightb=1 / open_gop=0 / weightp=2 / keyint=250 / keyint_min=23 / scenecut=40 / intra_refresh=0 / rc_lookahead=50 / rc=2pass / mbtree=1 / bitrate=8174 / ratetol=1.0 / qcomp=0.60 / qpmin=0 / qpmax=69 / qpstep=4 / cplxblur=20.0 / qblur=0.5 / ip_ratio=1.40 / aq=1:1.00
  25. Language                                 : English
  26. Default                                  : Yes
  27. Forced                                   : No

  28. Audio
  29. ID                                       : 2
  30. Format                                   : AC-3
  31. Format/Info                              : Audio Coding 3
  32. Commercial name                          : Dolby Digital
  33. Codec ID                                 : A_AC3
  34. Duration                                 : 1 h 28 min
  35. Bit rate mode                            : Constant
  36. Bit rate                                 : 640 kb/s
  37. Channel(s)                               : 1 channel
  38. Channel layout                           : C
  39. Sampling rate                            : 48.0 kHz
  40. Frame rate                               : 31.250 FPS (1536 SPF)
  41. Compression mode                         : Lossy
  42. Stream size                              : 406 MiB (7%)
  43. Language                                 : German
  44. Service kind                             : Complete Main
  45. Default                                  : Yes
  46. Forced                                   : No

  47. Text
  48. ID                                       : 3
  49. Format                                   : UTF-8
  50. Codec ID                                 : S_TEXT/UTF8
  51. Codec ID/Info                            : UTF-8 Plain Text
  52. Duration                                 : 1 h 27 min
  53. Bit rate                                 : 36 b/s
  54. Count of elements                        : 931
  55. Stream size                              : 23.4 KiB (0%)
  56. Language                                 : English
  57. Default                                  : Yes
  58. Forced                                   : Yes

  59. Menu
  60. 00:00:00.000                             : en:00:00:00.000
  61. 00:06:49.284                             : en:00:06:49.284
  62. 00:10:57.323                             : en:00:10:57.323
  63. 00:17:05.483                             : en:00:17:05.483
  64. 00:26:53.612                             : en:00:26:53.612
  65. 00:34:07.212                             : en:00:34:07.212
  66. 00:37:40.633                             : en:00:37:40.633
  67. 00:44:15.736                             : en:00:44:15.736
  68. 00:54:42.863                             : en:00:54:42.863
  69. 00:59:47.459                             : en:00:59:47.459
  70. 01:04:22.275                             : en:01:04:22.275
  71. 01:14:53.989                             : en:01:14:53.989
  72. 01:19:32.935                             : en:01:19:32.935
复制代码




                                       
                                       

                                       
                                       
                                       




回复

使用道具 举报

懒得打字嘛,点击右侧快捷回复 【右侧内容,后台自定义】
您需要登录后才可以回帖 登录 | 立即加入

本版积分规则

Archiver|小黑屋| 蓝光电影网 |网站地图

Copyright © 2021 Comsenz Inc. Powered by 蓝光电影网

蓝光电影网

本站内容由用户自主分享和转载自互联网,转载目的在于传递更多信息,并不代表本网赞同其观点和对其真实性负责。

如有侵权、违反国家法律政策行为,请联系我们,我们会第一时间及时清除和处理!

举报反馈邮箱:[email protected]

快速回复 返回顶部 返回列表